На всех торрентах на трекере установлена скидка на скачивание в размере 100 процентов(а).
 Возможность скачивания торрента НЕ зависит от ограничений при низком ратио, низком аплоаде, требуемом ратио или требуемом аплоаде.


Начать новую тему Ответить на тему
Статистика раздачи
Размер: 1.37 ГБ | Добавлен: 28 фев 2013, 12:48 | Скачали: 0
Сидеров: 0  [0 байт/сек]    Личеров: 0  [0 байт/сек]
Пред. тема | След. тема 

Автор
Сообщение

СообщениеДобавлено: 28 фев 2013, 12:48 

Все уже выросли / Dans la peau d'une grande



Страна: Франция
Жанр: комедия, мелодрама
Год выпуска: 2011
Продолжительность: 01:32:33

Перевод: Профессиональный (многоголосый, закадровый)
Режиссер: Паскаль Ламани / Pascal Lahmani

В фильме снимались: Клер Кейм , Мэтьё Делярив , Джули-Энн Рот , Мари-Армель Дегюй , Марк Риуфол , Pénélope Leveque , Ланник Готри , Софи Де Ферст , Benoit Blanc , Sybille De Crombruggen


Вкратце: Оливия - типичный подросток 90-х: любит слушать рок музыку, каждый день спорит со своими родителями из-за отметок в школе, проводит все свое свободное время со своей лучшей подругой Мари Лу, ненавидит математику и по уши влюблена в своего любимого парня Мэтью... Но однажды Оливия попадает в аварию и впадает в глубокую кому.
2010. Оливия просыпается красивой женщиной... Хорошие новости - ей не надо больше учить математику. Плохие новости - она все еще подросток в обличии 30 летней женщины! Теперь она обеспокоена только одним - возвращением Мэтью. Но только есть одна маленькая проблема: Мэтью женился на ее лучшей подруге Мари Лу!


Качество: SATRip
Контейнер: AVI
Видео: XviD, 720x400 (16:9), 1908 kbps, 25 fps, 0,265 bpp
Аудио: MP3 / 2.0 / 48 kHz / 192 kbps /


Media Info
General
Complete name : F:\Vse.uje.virosli.2011.SATRip.avi
Format : AVI
Format/Info : Audio Video Interleave
Format profile : OpenDML
File size : 1.37 GiB
Duration : 1h 32mn
Overall bit rate : 2 115 Kbps
Writing application : Lavf54.16.104[br][/br]Video
ID : 0
Format : MPEG-4 Visual
Format profile : Simple@L3
Format settings, BVOP : No
Format settings, QPel : No
Format settings, GMC : No warppoints
Format settings, Matrix : Default (H.263)
Codec ID : XVID
Codec ID/Hint : XviD
Duration : 1h 32mn
Bit rate : 1 909 Kbps
Width : 720 pixels
Height : 400 pixels
Display aspect ratio : 16:9
Frame rate : 25.000 fps
Color space : YUV
Chroma subsampling : 4:2:0
Bit depth : 8 bits
Scan type : Progressive
Compression mode : Lossy
Bits/(Pixel*Frame) : 0.265
Stream size : 1.23 GiB (90%)
Writing library : XviD 64[br][/br]Audio
ID : 1
Format : MPEG Audio
Format version : Version 1
Format profile : Layer 3
Codec ID : 55
Codec ID/Hint : MP3
Duration : 1h 32mn
Bit rate mode : Constant
Bit rate : 192 Kbps
Channel(s) : 2 channels
Sampling rate : 48.0 KHz
Compression mode : Lossy
Stream size : 127 MiB (9%)
Alignment : Aligned on interleaves
Interleave, duration : 24 ms (0.60 video frame)
Interleave, preload duration : 24 ms


Скриншоты
загрузка...
Правила, инструкции, FAQ!!!
Торрент  Добавлен [28 фев 2013, 12:48] Скачать торрент
Скачать торрент
[ Размер 14.24 КБ / Просмотров 15 ]

Статус  
 
Размер  1.37 ГБ
Приватный: Нет (DHT включён)
.torrent скачан  0
Как залить торрент? | Как скачать Torrent? | Как смотреть и слушать онлайн?  


     Отправить личное сообщение
   
Страница 1 из 1
Показать сообщения за:  Поле сортировки  
Начать новую тему Ответить на тему

   Похожие торренты   Автор   Ответы   Просмотры   Последнее сообщение 
В этой теме нет новых непрочитанных сообщений. Скачать торрент Последний час / Last Hour (Паскаль Кабуэт / Pascal Caubet) [2008, Франция / Гонконг, Боевик, триллер, драма, DVDRip] MVO + original

в форуме Боевики, Размер: 773.55 МБ, Здоровье: 0%

Anonymous

0
0|0

43
0

12 фев 2014, 08:17

Anonymous Перейти к последнему сообщению

В этой теме нет новых непрочитанных сообщений. Скачать торрент Проверен [VIDEO] Долгое падение / A Long Way Down (Паскаль Шомель / Pascal Chaumeil) [2014, Комедия, драма, HDRip] [MP4, 640x] DUB

в форуме Видео для смартфонов и КПК, Размер: 555.97 МБ, Здоровье: 100%

Anonymous

0
56|19

30
1

02 авг 2014, 16:54

Anonymous Перейти к последнему сообщению

В этой теме нет новых непрочитанных сообщений. Скачать торрент Проверен Золушка: Полный вперед! в 3Д / Cendrillon au Far West 3D (Паскаль Эрольд / Pascal Hérold) [2012, мультфильм, комедия, приключения, BDrip-AVC] Half OverUnder / Вертикальная анаморфная стереопара

в форуме 3D Мультфильмы, Размер: 8.57 ГБ, Здоровье: 0%

Anonymous

0
0|0

2
0

07 сен 2016, 18:15

Anonymous Перейти к последнему сообщению

В этой теме нет новых непрочитанных сообщений. Скачать торрент Проверен (Chanson, Pop, French pop, Folk pop) [WEB] Camelia Jordana - Dans La Peau - 2014, FLAC (tracks), lossless

в форуме Зарубежная музыка, Размер: 275.85 МБ, Здоровье: 100%

Anonymous

0
1|0

8
0

12 авг 2016, 21:20

Anonymous Перейти к последнему сообщению

В этой теме нет новых непрочитанных сообщений. Скачать торрент Вместе - это слишком / Ensemble, c'est trop (Леа Фазер / Lea Fazer) [2010, Франция, комедия, SATRip]

в форуме Комедии, Размер: 1.37 ГБ, Здоровье: 0%

Anonymous

0
0|0

25
0

17 фев 2014, 11:44

Anonymous Перейти к последнему сообщению



Сейчас этот форум просматривают: нет зарегистрированных пользователей и гости: 3


Вы не можете начинать темы
Вы не можете отвечать на сообщения
Вы не можете редактировать свои сообщения
Вы не можете удалять свои сообщения
Вы не можете добавлять вложения

Перейти:  

!ВНИМАНИЕ!
 Ресурс не предоставляет электронные версии произведений, а занимается лишь коллекционированием и каталогизацией ссылок, присылаемых и публикуемых на форуме нашими читателями. Если вы являетесь правообладателем какого-либо представленного материала и не желаете чтобы ссылка на него находилась в нашем каталоге, свяжитесь с нами и мы незамедлительно удалим её. Файлы для обмена на трекере предоставлены пользователями сайта, и администрация не несёт ответственности за их содержание. Просьба не заливать файлы, защищенные авторскими правами, а также файлы нелегального содержания!