На всех торрентах на трекере установлена скидка на скачивание в размере 100 процентов(а).
 Возможность скачивания торрента НЕ зависит от ограничений при низком ратио, низком аплоаде, требуемом ратио или требуемом аплоаде.


Начать новую тему Ответить на тему
Статистика раздачи
Размер: 743.78 МБ | Добавлен: 28 фев 2013, 12:48 | Скачали: 0
Сидеров: 0  [0 байт/сек]    Личеров: 0  [0 байт/сек]
Пред. тема | След. тема 

Автор
Сообщение

СообщениеДобавлено: 28 фев 2013, 12:48 

Мой придурочный брат



Страна: США
Жанр: комедия, драма
Год выпуска: 2011
Продолжительность: 01:29:51
Перевод: Профессиональный (двухголосый закадровый) OzzTV
Cубтитры: русские /El Brujo/

Режиссер: Джесси Перетц / Jesse Peretz


В фильме снимались: Пол Радд (Ned), Элизабет Бэнкс (Miranda), Ник Салливан (Customer), Зои Дешанель (Natalie), Франческа Папалиа (Sadie), Эмили Мортимер (Liz), Роберт Дж. Стефенсон (Officer Washburn), Питер Хэрман (Terry), Адам Скотт (Jeremy), Kelly Briter (Girl with Jeremy), Рашида Джонс (Cindy), Стив Кугэн (Dylan)


Вкратце: Нед поочередно вторгается в жизнь его трех сестер: карьеристки Миранды, собравшейся устроить в своей карьере перерыв; лесбиянки Натали, скрывающей свое истинное «я» от лучшей подруги Синди; и Лиз, слишком обеспокоенной тем, чтобы быть прекрасной матерью, чтобы заметить, что ее брак разваливается.


Перевод: El Brujo
Роли озвучивали: Алексей Серегин и Елена Каламурза


Качество видео: HDRip
Формат видео: AVI
Видео: 624x352 (1.77:1), 23.976 fps, XviD build 64 ~1019 kbps avg, 0.19 bit/pixel
Аудио: 48 kHz, MPEG Layer 3, 2 ch, ~128.00 kbps avg



MediaInfo
Код:
General
Complete name                    : E:\Our.Idiot.Brother.2011.HDRip.Rus.Ozz.TV\Our.Idiot.Brother.2011.HDRip.Ozz.TV.Rus.avi
Format                           : AVI
Format/Info                      : Audio Video Interleave
File size                        : 744 MiB
Duration                         : 1h 29mn
Overall bit rate                 : 1 157 Kbps
Writing application              : VirtualDubMod 1.5.10.2 (build 2540/release)
Writing library                  : VirtualDubMod build 2540/release[br][/br]Video
ID                               : 0
Format                           : MPEG-4 Visual
Format profile                   : Advanced Simple@L5
Format settings, BVOP            : Yes
Format settings, QPel            : No
Format settings, GMC             : No warppoints
Format settings, Matrix          : Custom
Codec ID                         : XVID
Codec ID/Hint                    : XviD
Duration                         : 1h 29mn
Bit rate                         : 1 020 Kbps
Width                            : 624 pixels
Height                           : 352 pixels
Display aspect ratio             : 16:9
Frame rate                       : 23.976 fps
Resolution                       : 8 bits
Colorimetry                      : 4:2:0
Scan type                        : Progressive
Bits/(Pixel*Frame)               : 0.194
Stream size                      : 655 MiB (88%)
Writing library                  : XviD 64[br][/br]Audio
ID                               : 1
Format                           : MPEG Audio
Format version                   : Version 1
Format profile                   : Layer 3
Codec ID                         : 55
Codec ID/Hint                    : MP3
Duration                         : 1h 29mn
Bit rate mode                    : Constant
Bit rate                         : 128 Kbps
Channel(s)                       : 2 channels
Sampling rate                    : 44.1 KHz
Stream size                      : 82.3 MiB (11%)
Alignment                        : Split accross interleaves
Interleave, duration             : 42 ms (1.00 video frame)
Interleave, preload duration     : 500 ms


загрузка...
Правила, инструкции, FAQ!!!
Торрент  Добавлен [28 фев 2013, 12:48] Скачать торрент
Скачать торрент
[ Размер 15.17 КБ / Просмотров 10 ]

Статус  
 
Размер  743.78 МБ
Приватный: Нет (DHT включён)
.torrent скачан  0
Как залить торрент? | Как скачать Torrent? | Как смотреть и слушать онлайн?  


     Отправить личное сообщение
   
Страница 1 из 1
Показать сообщения за:  Поле сортировки  
Начать новую тему Ответить на тему

   Похожие торренты   Автор   Ответы   Просмотры   Последнее сообщение 
В этой теме нет новых непрочитанных сообщений. Скачать торрент Проверен [iPhone] О, где же ты, брат? / O Brother, Where Art Thou? (Джоэл Коэн / Joel Coen, Итэн Коэн / Ethan Coen) [2000, черная комедия, приключения, криминал, HDRip] Dub + AVO + Original + Sub

в форуме Фильмы для iPod, iPhone, iPad, Размер: 867.33 МБ, Здоровье: 100%

Гость

0
1|0

19
0

14 май 2015, 00:00

Гость Перейти к последнему сообщению

В этой теме нет новых непрочитанных сообщений. Скачать торрент О, где же ты, брат? / O Brother, Where Art Thou? (Джоэл Коэн / Joel Coen, Итэн Коэн / Ethan Coen) [2000, комедия, приключения, криминал, BDRip 720p] DUB

в форуме 720p | 1080p, Размер: 7.83 ГБ, Здоровье: 0%

Anonymous

0
0|0

38
0

25 фев 2014, 22:40

Anonymous Перейти к последнему сообщению

В этой теме нет новых непрочитанных сообщений. Скачать торрент Брат воина / The Warrior's Brother / Frere du guerrier, Le (Пьер Жоливе / Pierre Jolivet) [2002 г., Приключенческий боевик, DVDRip]

в форуме Боевики, Размер: 1.36 ГБ, Здоровье: 100%

Anonymous

0
5|2

44
1

29 апр 2014, 13:54

Anonymous Перейти к последнему сообщению

В этой теме нет новых непрочитанных сообщений. Скачать торрент Джесси Стоун: Ночной визит / Jesse Stone: Night Passage (Роберт Хармон / Robert Harmon) [2006, США, драма, детектив, DVDRip]

в форуме Драмы, Мелодрамы, Размер: 741.02 МБ, Здоровье: 100%

Anonymous

0
10|4

62
0

03 апр 2014, 12:46

Anonymous Перейти к последнему сообщению

В этой теме нет новых непрочитанных сообщений. Скачать торрент Проверен Jesse Kellerman / Джесси Келлерман - The Genius / Гений [2011, DOC,FB2,PDF, RUS]

в форуме Детективы и Боевики, Размер: 5.61 МБ, Здоровье: 0%

Anonymous

0
0|0

2
0

08 сен 2016, 21:25

Anonymous Перейти к последнему сообщению



Сейчас этот форум просматривают: нет зарегистрированных пользователей и гости: 1


Вы не можете начинать темы
Вы не можете отвечать на сообщения
Вы не можете редактировать свои сообщения
Вы не можете удалять свои сообщения
Вы не можете добавлять вложения

Перейти:  

!ВНИМАНИЕ!
 Ресурс не предоставляет электронные версии произведений, а занимается лишь коллекционированием и каталогизацией ссылок, присылаемых и публикуемых на форуме нашими читателями. Если вы являетесь правообладателем какого-либо представленного материала и не желаете чтобы ссылка на него находилась в нашем каталоге, свяжитесь с нами и мы незамедлительно удалим её. Файлы для обмена на трекере предоставлены пользователями сайта, и администрация не несёт ответственности за их содержание. Просьба не заливать файлы, защищенные авторскими правами, а также файлы нелегального содержания!