На всех торрентах на трекере установлена скидка на скачивание в размере 100 процентов(а).
 Возможность скачивания торрента НЕ зависит от ограничений при низком ратио, низком аплоаде, требуемом ратио или требуемом аплоаде.


Начать новую тему Ответить на тему
Статистика раздачи
Размер: 1.46 ГБ | Добавлен: 25 фев 2013, 21:54 | Скачали: 0
Сидеров: 0  [0 байт/сек]    Личеров: 0  [0 байт/сек]
Пред. тема | След. тема 

Автор
Сообщение

СообщениеДобавлено: 25 фев 2013, 21:54 

Муви 43 / Movie 43


Страна: США
Жанр: комедия
Год выпуска: 2013

Продолжительность: 01:39:30

Перевод: Профессиональный (полное дублирование) [Лицензия]
Субтитры: нет

Режиссер: Стивен Брилл / Steven Brill, Питер Фаррелли / Peter Farrelly, Боб Оденкирк / Bob Odenkirk

В фильме снимались: Холли Берри, Джерард Батлер, Анна Фэрис, Хью Джекман, Джонни Ноксвил, Кристофер Минц-Плассе, Шонн Уильям Скотт, Эмма Стоун, Кейт Уинслет, Деннис Куэйд, Грег Киннер, Коммон

Вкратце: В фильме отличные знаменитые актёры, удивительно, что они снялись в этом фильме, но в тоже время игра их восхищает, смелость поражает. В фильме собраны мини- новеллы. В них пародии на жадность, тупость, на падение нравов.




Лицам до 17 лет обязательно присутствие взрослого




Качество: BDRip [Рип с Blu-ray 1080p]
Контейнер: AVI

Видео: XviD, 720x400 (16:9), 1639 kbps, 24 fps, 0,237 bpp
Аудио: AC3 / 5.1 / 48 kHz / 448 kbps / 16 bit






General
Complete name : F:\Muvi.43.2013.D.HDRip_1492.avi
Format : AVI
Format/Info : Audio Video Interleave
File size : 1.46 GiB
Duration : 1h 39mn
Overall bit rate : 2 097 Kbps
Writing application : VirtualDubMod 1.5.10.2 (build 2540/release)
Writing library : VirtualDubMod build 2540/release

Video
ID : 0
Format : MPEG-4 Visual
Format profile : Advanced Simple@L5
Format settings, BVOP : 2
Format settings, QPel : No
Format settings, GMC : No warppoints
Format settings, Matrix : Custom
Codec ID : XVID
Codec ID/Hint : XviD
Duration : 1h 39mn
Bit rate : 1 640 Kbps
Width : 720 pixels
Height : 400 pixels
Display aspect ratio : 16:9
Frame rate : 24.000 fps
Color space : YUV
Chroma subsampling : 4:2:0
Bit depth : 8 bits
Scan type : Progressive
Compression mode : Lossy
Bits/(Pixel*Frame) : 0.237
Stream size : 1.14 GiB (78%)
Writing library : XviD 1.2.1 (UTC 2008-12-04)

Audio
ID : 1
Format : AC-3
Format/Info : Audio Coding 3
Mode extension : CM (complete main)
Codec ID : 2000
Duration : 1h 39mn
Bit rate mode : Constant
Bit rate : 448 Kbps
Channel(s) : 6 channels
Channel positions : Front: L C R, Side: L R, LFE
Sampling rate : 48.0 KHz
Bit depth : 16 bits
Compression mode : Lossy
Stream size : 319 MiB (21%)
Alignment : Split accross interleaves
Interleave, duration : 42 ms (1.00 video frame)
Interleave, preload duration : 500 ms






загрузка...
Правила, инструкции, FAQ!!!
Торрент  Добавлен [25 фев 2013, 21:54] Скачать торрент
Скачать торрент
[ Размер 15.14 КБ / Просмотров 7 ]

Статус
Проверен 
 
Размер  1.46 ГБ
Приватный: Нет (DHT включён)
.torrent скачан  0
Как залить торрент? | Как скачать Torrent? | Как смотреть и слушать онлайн?  


     Отправить личное сообщение
   
Страница 1 из 1
Показать сообщения за:  Поле сортировки  
Начать новую тему Ответить на тему

   Похожие торренты   Автор   Ответы   Просмотры   Последнее сообщение 
В этой теме нет новых непрочитанных сообщений. Скачать торрент Проверен Я, снова я и Ирэн / Me, Myself & Irene (Бобби Фаррелли, Питер Фаррелли / Bobby Farrelly, Peter Farrelly) [2000, США, комедия, BDRip, 480p] Dub + Original + sub (rus, eng)

в форуме Фильмы для iPod, iPhone, iPad, Размер: 1.44 ГБ, Здоровье: 100%

Anonymous

0
14|4

28
0

11 май 2015, 01:38

Anonymous Перейти к последнему сообщению

В этой теме нет новых непрочитанных сообщений. Скачать торрент Проверен [iPad] Три балбеса / The Three Stooges (Бобби Фаррелли / Bobby Farrelly, Питер Фаррелли / Peter Farrelly) [2012, США, комедия, BDRip] DVO [den904 & DeadSno] + Sub Eng + Original Eng

в форуме Фильмы для iPod, iPhone, iPad, Размер: 2.29 ГБ, Здоровье: 100%

Гость

0
23|6

41
1

14 май 2015, 00:21

Гость Перейти к последнему сообщению

В этой теме нет новых непрочитанных сообщений. Скачать торрент Проверен Любовь зла / Shallow Hal (Бобби Фаррелли, Питер Фаррелли / Peter Farrelly, Bobby Farrelly) [2001, фэнтези, мелодрама, комедия BDRip, 480p] DUB, MVO, Original + sub (rus, eng)

в форуме Фильмы для iPod, iPhone, iPad, Размер: 1.67 ГБ, Здоровье: 100%

Гость

0
9|3

32
0

13 май 2015, 23:57

Гость Перейти к последнему сообщению

В этой теме нет новых непрочитанных сообщений. Скачать торрент Миллионер поневоле / Mr. Deeds (Стивен Брилл / Steven Brill) [2002, США, мелодрама, комедия, BDRip]

в форуме Драмы, Мелодрамы, Размер: 744.87 МБ, Здоровье: 100%

Anonymous

0
5|1

18
0

29 апр 2014, 13:55

Anonymous Перейти к последнему сообщению

В этой теме нет новых непрочитанных сообщений. Скачать торрент Девушка моих кошмаров / The Heartbreak Kid (Бобби Фаррелли, Питер Фаррелли) [2007 г., Комедия, мелодрама, HDRip-AVC]

в форуме 720p | 1080p, Размер: 2.15 ГБ, Здоровье: 0%

Anonymous

0
0|0

37
0

07 фев 2014, 11:41

Anonymous Перейти к последнему сообщению



Сейчас этот форум просматривают: нет зарегистрированных пользователей и гости: 1


Вы не можете начинать темы
Вы не можете отвечать на сообщения
Вы не можете редактировать свои сообщения
Вы не можете удалять свои сообщения
Вы не можете добавлять вложения

Перейти:  

!ВНИМАНИЕ!
 Ресурс не предоставляет электронные версии произведений, а занимается лишь коллекционированием и каталогизацией ссылок, присылаемых и публикуемых на форуме нашими читателями. Если вы являетесь правообладателем какого-либо представленного материала и не желаете чтобы ссылка на него находилась в нашем каталоге, свяжитесь с нами и мы незамедлительно удалим её. Файлы для обмена на трекере предоставлены пользователями сайта, и администрация не несёт ответственности за их содержание. Просьба не заливать файлы, защищенные авторскими правами, а также файлы нелегального содержания!