На всех торрентах на трекере установлена скидка на скачивание в размере 100 процентов(а).
 Возможность скачивания торрента НЕ зависит от ограничений при низком ратио, низком аплоаде, требуемом ратио или требуемом аплоаде.


Начать новую тему Ответить на тему
Статистика раздачи
Размер: 1.39 ГБ | Добавлен: 15 фев 2013, 10:32 | Скачали: 0
Сидеров: 0  [0 байт/сек]    Личеров: 0  [0 байт/сек]
Пред. тема | След. тема 

Автор
Сообщение

СообщениеДобавлено: 15 фев 2013, 10:32 

Астерикс и Обеликс в Британии



Название: Астерикс и Обеликс в Британии
Год выпуска: 2012
Жанр: Комедия, приключения, семейный
Режиссер: Лоран Тирар

В фильме снимались: Жерар Депардье, Эдуард Баэр, Гийом Гальенн, Венсан Лакост, Валери Лемерсье, Фабрис Лукини, Катрин Денев, Шарлотта Лебон, Боли Ланнерс, Дани Бун, Атмен Келиф, Жан Рошфор, Жерар Жюньо, Лука Дзингаретти, Филиппо Тими, Никколо Сенни, Нери Маркоре, Тристан Ульоа

Вкратце: Пятидесятый год до нашей эры. Юлий Цезарь рвется к новым завоеваниям. Командуя своими прославленными легионами он собирается захватить остров, который расположен на самом краю света — таинственную страну, называемоей Британией. Легионы Цезаря одерживает быструю и безоговорочную победу. Ну… почти безоговорочную: одна небольшая деревушка продолжает отчаянно обороняться, однако силы не равны, и королева бриттов Корделия направляет офицера Красовакса за помощью в Галлию. Когда к галлам приезжает Красовакс, те снабжают его бочонком своего знаменитого волшебного зелья, а Астерикс и Обеликс отправляются вместе с ним в Британию. Гадорикса они тоже берут с собой, так как путешествие — хороший способ пополнить образование молодого человека. Но, к сожалению, все идет не так, как было задумано…




Выпущено: Венгрия, Испания, Италия, Франция / Bruxelles Capitale, Cinetotal, Fidélité Films, Film Kairòs, France 2 Cinéma, France 3 Cinéma, France Télévision, Les Editions Albert
Продолжительность: 01:50:15
Перевод: Дублированный - Звук с CAMRip
Субтитры: нет



Качество: HDRip
Формат: AVI
Видео: XviD, 1598 Кбит/с, 720x304
Аудио: MP3, 2 ch, 192 Кбит/с

Формат : AVI
Формат/Информация : Audio Video Interleave
Размер файла : 1,39 Гбайт
Продолжительность : 1 ч. 50 м.
Общий поток : 1800 Кбит/сек
Программа кодирования : VirtualDubMod 1.5.10.2 (build 2540/release)
Библиотека кодирования : VirtualDubMod build 2540/release

Видео
Идентификатор : 0
Формат : MPEG-4 Visual
Профиль формата : Advanced Simple@L5
Параметр BVOP формата : 2
Параметр QPel формата : Нет
Параметр GMC формата : Без точки перехода
Параметр матрицы формата : Default (H.263)
Режим смешивания : Сжатый битовый поток
Идентификатор кодека : XVID
Идентификатор кодека/Подсказка : XviD
Продолжительность : 1 ч. 50 м.
Битрейт : 1598 Кбит/сек
Ширина : 720 пикс.
Высота : 304 пикс.
Соотношение сторон : 2,35:1
Частота кадров : 23,976 кадр/сек
Цветовое пространство : YUV
Подвыборка цветности : 4:2:0
Битовая глубина : 8 бит
Тип развёртки : Прогрессивная
Метод сжатия : С потерями
Бит/(Пиксели*Кадры) : 0.305
Размер потока : 1,23 Гбайт (89%)
Библиотека кодирования : XviD 64

Аудио
Идентификатор : 1
Формат : MPEG Audio
Версия формата : Version 1
Профиль формата : Layer 3
Идентификатор кодека : 55
Идентификатор кодека/Подсказка : MP3
Продолжительность : 1 ч. 50 м.
Вид битрейта : Постоянный
Битрейт : 192 Кбит/сек
Каналы : 2 канала
Частота : 48,0 КГц
Метод сжатия : С потерями
Размер потока : 151 Мбайт (11%)
Выравнивание : Соединение по промежуткам
Продолжительность промежутка : 42 мс. (1,00 видеокадр)
Время предзагрузки промежутка : 504 ms





Приятного просмотра!
загрузка...
Правила, инструкции, FAQ!!!
Торрент  Добавлен [15 фев 2013, 10:32] Скачать торрент
Скачать торрент
[ Размер 14.29 КБ / Просмотров 12 ]

Статус
Проверен 
 
Размер  1.39 ГБ
Приватный: Нет (DHT включён)
.torrent скачан  0
Как залить торрент? | Как скачать Torrent? | Как смотреть и слушать онлайн?  


     Отправить личное сообщение
   
Страница 1 из 1
Показать сообщения за:  Поле сортировки  
Начать новую тему Ответить на тему

   Похожие торренты   Автор   Ответы   Просмотры   Последнее сообщение 
В этой теме нет новых непрочитанных сообщений. Скачать торрент Проверен Астерикс и Обеликс в Британии в 3Д / Asterix et Obelix: Au service de Sa Majeste 3D (Лоран Тирар / Laurent Tirard) [2012, комедия, приключения, семейный, BDrip-avc] Half OverUnder / Вертикальная анаморфная стереопара

в форуме 3D Мультфильмы, Размер: 11 ГБ, Здоровье: 0%

Anonymous

0
0|0

7
0

07 сен 2016, 17:58

Anonymous Перейти к последнему сообщению

В этой теме нет новых непрочитанных сообщений. Скачать торрент Астерикс и Обеликс: Миссия Клеопатра / Asterix & Obelix: Mission Cleopatra / Astérix & Obélix: Mission Cléopâtre (Ален Шаба / Alain Chabat) [2002, комедия, BDRip-AVC] Dub

в форуме Комедии, Размер: 1.46 ГБ, Здоровье: ???%

Anonymous

0
0|1

104
0

22 апр 2014, 11:41

Anonymous Перейти к последнему сообщению

В этой теме нет новых непрочитанных сообщений. Скачать торрент Астерикс и Обеликс: Миссия Клеопатра / Asterix & Obelix: Mission Cleopatra / Astérix & Obélix: Mission Cléopâtre (Ален Шаба / Alain Chabat) [2002, Франция, Германия, Комедия, BDRip] Dub

в форуме Комедии, Размер: 1.46 ГБ, Здоровье: 100%

Anonymous

0
34|11

67
0

26 апр 2014, 20:55

Anonymous Перейти к последнему сообщению

В этой теме нет новых непрочитанных сообщений. Скачать торрент Астерикс и Обеликс против Цезаря / Asterix et Obelix contre Cesar (Клод Зиди / Claude Zidi) [1999 г., Комедия, Приключения, BDRip]

в форуме Комедии, Размер: 1.46 ГБ, Здоровье: 0%

Anonymous

0
0|0

57
0

01 фев 2014, 19:08

Anonymous Перейти к последнему сообщению

В этой теме нет новых непрочитанных сообщений. Скачать торрент Проверен [iPad] Астерикс и Обеликс: Миссия Клеопатра / Asterix & Obelix: Mission Cleopatre (Ален Шаба / Alain Chabat) [2001, фэнтези, комедия, приключения, BDRip, 1024х]

в форуме Фильмы для iPod, iPhone, iPad, Размер: 2.91 ГБ, Здоровье: 100%

Гость

0
8|2

37
0

18 май 2015, 10:33

Гость Перейти к последнему сообщению



Сейчас этот форум просматривают: нет зарегистрированных пользователей и гости: 1


Вы не можете начинать темы
Вы не можете отвечать на сообщения
Вы не можете редактировать свои сообщения
Вы не можете удалять свои сообщения
Вы не можете добавлять вложения

Перейти:  

!ВНИМАНИЕ!
 Ресурс не предоставляет электронные версии произведений, а занимается лишь коллекционированием и каталогизацией ссылок, присылаемых и публикуемых на форуме нашими читателями. Если вы являетесь правообладателем какого-либо представленного материала и не желаете чтобы ссылка на него находилась в нашем каталоге, свяжитесь с нами и мы незамедлительно удалим её. Файлы для обмена на трекере предоставлены пользователями сайта, и администрация не несёт ответственности за их содержание. Просьба не заливать файлы, защищенные авторскими правами, а также файлы нелегального содержания!