На всех торрентах на трекере установлена скидка на скачивание в размере 100 процентов(а).
 Возможность скачивания торрента НЕ зависит от ограничений при низком ратио, низком аплоаде, требуемом ратио или требуемом аплоаде.


Начать новую тему Ответить на тему
Статистика раздачи
Размер: 1.37 ГБ | Добавлен: 19 июл 2014, 17:51 | Скачали: 0
Сидеров: 0  [0 байт/сек]    Личеров: 0  [0 байт/сек]
Пред. тема | След. тема 

Автор
Сообщение

СообщениеДобавлено: 19 июл 2014, 17:51 

Студенческая команда / Varsity Blues
Год выхода: 1999
Жанр: Комедия, драма, спорт
Режиссер: Брайн Роббинс / Brian Robbins

В ролях: Джеймс Ван Дер Бик, Эми Смарт, Джон Войт, Пол Уокер, Скотт Каан, Али Лартер, Рон Лестер, Ричард Лайнбэк, Томас Даффи, Тони Перенски

О фильме: Вот уже 35 лет опытный тренер Бад Килмер (Войт) тренирует студенческую команду под названием «Койоты» из маленького городка в штате Техас. Килмер - требователен и суров, от своих подопечных он непреклонно требует победы, чего бы она ни стоила. Когда в разгар футбольного сезона ведущий игрок «Койотов» получает тяжелую травму, Бад решает поставить на его место паренька по имени Джонатан Моксон (Ван Дер Бик). Моксона меньше всего привлекает перспектива стать звездой футбола: ему гораздо более по душе спокойное место на скамейке запасных, подальше от назойливого тренера. Теперь, оказавшись на месте ключевого игрока «Койотов», Моксон должен доказать себе и другим, чего он стоит в действительности. Судьба играет человеком как хочет, но человек способен ее обыграть, а иногда и стать героем...





Рейтинг R - Детям до 17 лет обязательно присутствие родителей

Выпущено: США
Продолжительность: 01:44:41
Перевод:
Профессиональный (двухголосый, закадровый)

Кодек: XviD - Совместимо с бытовыми DVD-плеерами
Качество: HDRip (Исходник - BDRip 1080p. Спасибо Stosha_Govnozad )
Видео: 720x408 (16:9), 23.976 fps, XviD build 65 ~1671 kbps avg, 0.24 bit/pixel
Аудио: 48 kHz, AC3 Dolby Digital, 2/0 (L,R) ch, ~192 kbps


Общее
Полное имя: Studencheskay.komanda.1999.XviD.HDRip.DVO_SergV.avi
Формат : AVI
Формат/Информация : Audio Video Interleave
Размер файла : 1,37 Гбайт
Продолжительность : 1 ч. 44 м.
Общий поток : 1873 Кбит/сек
Название фильма : Studencheskay.komanda.1999.XviD.HDRip.DVO_SergV
Программа кодирования : VirtualDubMod 1.5.10.3 | http://www.virtualdub-fr.org || (build 2550/release)
Примечание : Рип от SergV

Видео
Идентификатор : 0
Формат : MPEG-4 Visual
Профиль формата : Advanced Simple@L5
Параметр BVOP формата : 2
Параметр QPel формата : Нет
Параметр GMC формата : Без точки перехода
Параметр матрицы формата : Default (MPEG)
Идентификатор кодека : XVID
Идентификатор кодека/Подсказка : XviD
Продолжительность : 1 ч. 44 м.
Битрейт : 1672 Кбит/сек
Ширина : 720 пикселей
Высота : 408 пикселей
Соотношение сторон : 16:9
Частота кадров : 23,976 кадра/сек
Цветовое пространство : YUV
Субдискретизация насыщенности : 4:2:0
Битовая глубина : 8 бит
Тип развёртки : Прогрессивная
Метод сжатия : С потерями
Бит/(Пиксели*Кадры) : 0.237
Размер потока : 1,22 Гбайт (89%)
Библиотека кодирования : XviD 65

Аудио
Идентификатор : 1
Формат : AC-3
Формат/Информация : Audio Coding 3
Расширение режима : CM (complete main)
Параметр Endianness формата : Big
Идентификатор кодека : 2000
Продолжительность : 1 ч. 44 м.
Вид битрейта : Постоянный
Битрейт : 192 Кбит/сек
Каналы : 2 канала
Расположение каналов : Front: L R
Частота : 48,0 КГц
Битовая глубина : 16 бит
Метод сжатия : С потерями
Размер потока : 144 Мбайт (10%)
Выравнивание : Разделение по промежуткам
Продолжительность промежутка : 42 мс. (1,00 видеокадр)
Время предзагрузки промежутка : 500 мс.

Скриншоты:


Релиз от:
загрузка...
Правила, инструкции, FAQ!!!
Торрент  Добавлен [19 июл 2014, 17:51] Скачать торрент
Скачать торрент
[ Размер 14.39 КБ / Просмотров 9 ]

Статус
Проверен 
 
Размер  1.37 ГБ
Приватный: Нет (DHT включён)
.torrent скачан  0
Как залить торрент? | Как скачать Torrent? | Как смотреть и слушать онлайн?  


     Отправить личное сообщение
   
Страница 1 из 1
Показать сообщения за:  Поле сортировки  
Начать новую тему Ответить на тему

   Похожие торренты   Автор   Ответы   Просмотры   Последнее сообщение 
В этой теме нет новых непрочитанных сообщений. Скачать торрент Проверен Студенческая команда / Varsity Blues (1999) BDRip 720p | P2

в форуме 720p | 1080p, Размер: 3.98 ГБ, Здоровье: 100%

Anonymous

0
3|0

17
33

19 июл 2014, 17:48

Anonymous Перейти к последнему сообщению

В этой теме нет новых непрочитанных сообщений. Скачать торрент Команда Мечты / Les seigneurs (2012) HDRip | L2

в форуме Комедии, Размер: 1.35 ГБ, Здоровье: 0%

Anonymous

0
0|0

40
0

13 дек 2013, 08:43

Anonymous Перейти к последнему сообщению

В этой теме нет новых непрочитанных сообщений. Скачать торрент Проверен Команда 49: Огненная лестница / Ladder 49 (2004) HDRip | D

в форуме Боевики, Размер: 1.45 ГБ, Здоровье: 100%

Гость

0
29|2

332
2

21 май 2016, 22:23

Гость Перейти к последнему сообщению

В этой теме нет новых непрочитанных сообщений. Скачать торрент Мы — одна команда / We Are Marshall (МакДжи / McG) [2006 г., драма, история, спорт, HDRip] MVO

в форуме Драмы, Мелодрамы, Размер: 789.54 МБ, Здоровье: 0%

Anonymous

0
0|0

20
0

06 фев 2014, 11:44

Anonymous Перейти к последнему сообщению

В этой теме нет новых непрочитанных сообщений. Скачать торрент Команда восемь: В тылу врага / Seal Team Eight: Behind Enemy Lines (Роэль Рейн / Roel Reiné) [2014 г., США, Боевик, Военный, HDRip] MVO

в форуме Боевики, Размер: 1.37 ГБ, Здоровье: 100%

Anonymous

0
56|19

52
0

18 май 2014, 09:50

Anonymous Перейти к последнему сообщению



Сейчас этот форум просматривают: нет зарегистрированных пользователей и гости: 1


Вы не можете начинать темы
Вы не можете отвечать на сообщения
Вы не можете редактировать свои сообщения
Вы не можете удалять свои сообщения
Вы не можете добавлять вложения

Перейти:  

!ВНИМАНИЕ!
 Ресурс не предоставляет электронные версии произведений, а занимается лишь коллекционированием и каталогизацией ссылок, присылаемых и публикуемых на форуме нашими читателями. Если вы являетесь правообладателем какого-либо представленного материала и не желаете чтобы ссылка на него находилась в нашем каталоге, свяжитесь с нами и мы незамедлительно удалим её. Файлы для обмена на трекере предоставлены пользователями сайта, и администрация не несёт ответственности за их содержание. Просьба не заливать файлы, защищенные авторскими правами, а также файлы нелегального содержания!