На всех торрентах на трекере установлена скидка на скачивание в размере 100 процентов(а).
 Возможность скачивания торрента НЕ зависит от ограничений при низком ратио, низком аплоаде, требуемом ратио или требуемом аплоаде.


Начать новую тему Ответить на тему
Статистика раздачи
Размер: 2.18 ГБ | Добавлен: 12 июл 2014, 21:28 | Скачали: 1
Сидеров: 0  [0 байт/сек]    Личеров: 0  [0 байт/сек]
Пред. тема | След. тема 

Автор
Сообщение

СообщениеДобавлено: 12 июл 2014, 21:28 

Название: Водная жизнь
Оригинальное название: The Life Aquatic with Steve Zissou
Год выхода: 2004
Жанр: Комедия, приключения
Режиссер: Уэс Андерсон

В ролях: Билл Мюррэй, Оуэн Уилсон, Кейт Бланшетт, Анжелика Хьюстон, Уиллем Дефо, Джефф Голдблюм, Майкл Гэмбон, Ноа Тейлор, Бад Корт, Сеу Жоржи, Робин Коэн, Варис Ахлувалиа, Нильс Коизуми, Павел Вдовчак, Мэттью Грей Гублер, Сеймур Кэссел, Антонио Монда, Изабелла Блоу, Джеймс Хэмилтон, Мелани Геррен, Наццарено Пйана, Радд Симмонс, Леонардо Джованнелли, Генри С.Ф. Купер мл., Пьетро Рагуса, Эрик Чейз Андерсон, Роберт Уилсон, Дон МакКиннон, Алессио Сантини, Паоло Сиригнани, Эндрю Вейселл, Никколо Сенни

О фильме:
Если вашего напарника съела редкая ягуаровая акула, не стоит горевать впустую и бездействовать. Это говорит вам Стив Зиссу - светило океанографии, бесстрашный исследователь морских глубин, чье имя вписано золотом на скрижалях истории аккурат между Жан-Жаком Кусто и капитаном Немо. А если еще не вписано, то непременно будет - после очередной экспедиции, целью которой является отыскать уникальную ягуаровую акулу. Помимо научного интереса, Стив не прочь утолить жажду мести: ведь именно эта рыбка скушала его коллегу! А чтобы вояж оказался как можно более запоминающимся, герой комплектует команду своей легендарной субмарины "Беллафонте" самыми невменяемыми персонажами: от выдающего себя за его сына типа до беременной журналистки. И пока за штурвалом подлодки Стив Зиссу, ничто не в силах помешать его одиссее - ни пираты, ни шторма, ни злые кусачие акулы - ни даже сам Стив Зиссу!..



MPAA: R - Лицам до 17 лет обязательно присутствие взрослого



Страна: США / Touchstone Pictures
Продолжительность: 01:58:44
Перевод: Профессиональный многоголосый + профессиональный двухголосый + оригинал


Качество: BDRip
Видео: XviD, 720x304 (2.35:1), 1719 kbps, 23,976 fps, 0,328 bpp
Аудио №1: AC3 / 5.1 / 48 kHz / 448 kbps / 16 bit MVO
Аудио №2: AC3 / 5.1 / 48 kHz / 448 kbps / 16 bit ENG
Аудио №3: AC3 / 5.1 / 48 kHz / 384 kbps / 16 bit DVO (отдельно)
Субтитры: русские, английские (full, SDH)



Дополнительные аудиодорожки:
Профессиональный двухголосый (Tycoon-studio)
Format : AVI
Format/Info : Audio Video Interleave
Format profile : OpenDML
File size : 2.18 GiB
Duration : 1h 58mn
Overall bit rate : 2 633 Kbps
Writing application : VirtualDubMod 1.5.10.3 | http://www.virtualdub-fr.org || (build 2550/release)
Writing library : VirtualDubMod build 2550/release

Video
ID : 0
Format : MPEG-4 Visual
Format profile : Advanced Simple@L5
Format settings, BVOP : 1
Format settings, QPel : No
Format settings, GMC : No warppoints
Format settings, Matrix : Custom
Codec ID : XVID
Codec ID/Hint : XviD
Duration : 1h 58mn
Bit rate : 1 719 Kbps
Width : 720 pixels
Height : 304 pixels
Display aspect ratio : 2.35:1
Frame rate : 23.976 fps
Color space : YUV
Chroma subsampling : 4:2:0
Bit depth : 8 bits
Scan type : Progressive
Compression mode : Lossy
Bits/(Pixel*Frame) : 0.328
Stream size : 1.43 GiB (65%)
Writing library : XviD 73

Audio #1
ID : 1
Format : AC-3
Format/Info : Audio Coding 3
Mode extension : CM (complete main)
Codec ID : 2000
Duration : 1h 58mn
Bit rate mode : Constant
Bit rate : 448 Kbps
Channel(s) : 6 channels
Channel positions : Front: L C R, Side: L R, LFE
Sampling rate : 48.0 KHz
Bit depth : 16 bits
Compression mode : Lossy
Stream size : 381 MiB (17%)
Alignment : Split accross interleaves
Interleave, duration : 42 ms (1.00 video frame)
Interleave, preload duration : 500 ms

Audio #2
ID : 2
Format : AC-3
Format/Info : Audio Coding 3
Mode extension : CM (complete main)
Codec ID : 2000
Duration : 1h 58mn
Bit rate mode : Constant
Bit rate : 448 Kbps
Channel(s) : 6 channels
Channel positions : Front: L C R, Side: L R, LFE
Sampling rate : 48.0 KHz
Bit depth : 16 bits
Compression mode : Lossy
Stream size : 381 MiB (17%)
Alignment : Split accross interleaves
Interleave, duration : 42 ms (1.00 video frame)
Interleave, preload duration : 500 ms

Сюжет фильма является пародийной вариацией «Моби Дика» Германа Мелвилла.
Джейн читает вслух своему ребенку «В поисках утраченного времени» Марселя Пруста.
Во время съёмок фильма Билл Мюррей стал дипломированным подводником, проведя под водой более 40 часов.
Красные шапки, которые носят герои, напрямую отсылают к Жаку Иву Кусто, знаменитому подводнику и документалисту, творчеству которого и посвящен фильм.
еще 1 факт



[*]Автор рипа: Vikosol
загрузка...
Правила, инструкции, FAQ!!!
Торрент  Добавлен [12 июл 2014, 21:28] Скачать торрент
Скачать торрент
[ Размер 11.44 КБ / Просмотров 12 ]

Статус
Проверен 
 
Размер  2.18 ГБ
Приватный: Нет (DHT включён)
.torrent скачан  1
Как залить торрент? | Как скачать Torrent? | Как смотреть и слушать онлайн?  


     Отправить личное сообщение
   
Страница 1 из 1
Показать сообщения за:  Поле сортировки  
Начать новую тему Ответить на тему

   Похожие торренты   Автор   Ответы   Просмотры   Последнее сообщение 
В этой теме нет новых непрочитанных сообщений. Скачать торрент Проверен Водная жизнь / The Life Aquatic with Steve Zissou (2004) BDRip 1080p | P, P2

в форуме 720p | 1080p, Размер: 14.62 ГБ, Здоровье: 100%

Anonymous

0
2|0

29
68

12 июл 2014, 21:34

Anonymous Перейти к последнему сообщению

В этой теме нет новых непрочитанных сообщений. Скачать торрент Проверен Водная жизнь / The Life Aquatic with Steve Zissou (2004) BDRip 720p | P

в форуме 720p | 1080p, Размер: 3.1 ГБ, Здоровье: 100%

Anonymous

0
11|0

23
303

12 июл 2014, 21:22

Anonymous Перейти к последнему сообщению

В этой теме нет новых непрочитанных сообщений. Скачать торрент Проверен Жизнь этого парня / This Boy's Life (1993) BDRip 1080p

в форуме 720p | 1080p, Размер: 7.75 ГБ, Здоровье: 10%

Гость

0
14|137

44
6

28 мар 2015, 14:47

Гость Перейти к последнему сообщению

В этой теме нет новых непрочитанных сообщений. Скачать торрент Жизнь короля / Life of a King (2013) BDRip 1080p | L1

в форуме 720p | 1080p, Размер: 8.08 ГБ, Здоровье: 0%

Anonymous

0
0|0

36
0

09 мар 2014, 08:54

Anonymous Перейти к последнему сообщению

В этой теме нет новых непрочитанных сообщений. Скачать торрент Жизнь короля / Life of a King (2013) BDRip 720p | L1

в форуме 720p | 1080p, Размер: 5.25 ГБ, Здоровье: 0%

Anonymous

0
0|0

37
0

09 мар 2014, 08:58

Anonymous Перейти к последнему сообщению



Сейчас этот форум просматривают: нет зарегистрированных пользователей и гости: 1


Вы не можете начинать темы
Вы не можете отвечать на сообщения
Вы не можете редактировать свои сообщения
Вы не можете удалять свои сообщения
Вы не можете добавлять вложения

Перейти:  

!ВНИМАНИЕ!
 Ресурс не предоставляет электронные версии произведений, а занимается лишь коллекционированием и каталогизацией ссылок, присылаемых и публикуемых на форуме нашими читателями. Если вы являетесь правообладателем какого-либо представленного материала и не желаете чтобы ссылка на него находилась в нашем каталоге, свяжитесь с нами и мы незамедлительно удалим её. Файлы для обмена на трекере предоставлены пользователями сайта, и администрация не несёт ответственности за их содержание. Просьба не заливать файлы, защищенные авторскими правами, а также файлы нелегального содержания!