На всех торрентах на трекере установлена скидка на скачивание в размере 100 процентов(а).
 Возможность скачивания торрента НЕ зависит от ограничений при низком ратио, низком аплоаде, требуемом ратио или требуемом аплоаде.


Начать новую тему Ответить на тему
Статистика раздачи
Размер: 744.96 МБ | Добавлен: 28 янв 2013, 19:02 | Скачали: 214
Сидеров: 32  [0 байт/сек]    Личеров: 3  [0 байт/сек]
Пред. тема | След. тема 

Автор
Сообщение

СообщениеДобавлено: 28 янв 2013, 19:02 

Майор Пэйн / Major Payne



О фильме:
Майору никак не присвоят звание полковника по одной причине — он умеет только убивать, ни на что другое он просто не способен. Его отправляют в отставку. Работа в полиции ему не подходит, и наш герой умирает от скуки в одном из номеров отеля.
Неожиданно он получает предложение стать инструктором по военной подготовке в военном учебном заведении. О том, как сложатся отношения «жестокосердного солдафона» с юными подопечными и одной весьма привлекательной преподавательницей рассказывает эта веселая комедия, полная забавных шуток и смешных ситуаций.


Название: Майор Пэйн
Год выхода: 1995
Жанр: комедия
Режиссер: Ник Касл / Nick Castle

В фильме снимались: Дэймон Уайанс, Росс Бикелл, Скотт Бигелоу, Йода Блэйр, Орландо Браун, Пейтон Чессон-Фол, Стивен Коулмэн, Марк Конуэй, Дэвид ДиХарт, Джошуа Тодд Дивели



Страна: США
Продолжительность: 01:32:57
Перевод: Профессиональный (двухголосый закадровый) НТВ+







Формат: avi
Кодек: XviD
Качество: HDTVRip
Видео: 688x384 (16:9), 25 fps, 983 Kbps, 0.149 Bits/(Pixel*Frame)
Звук: MP3, 48 KHz, 128 Kbps, 2 channels



General
Complete name : D:Major.Pein.1995.HDTVRip.XviD.745mb.avi
Format : AVI
Format/Info : Audio Video Interleave
File size : 745 MiB
Duration : 1h 32mn
Overall bit rate : 1 120 Kbps
Writing application : VirtualDubMod 1.5.10.2 (build 2540/release)
Writing library : VirtualDubMod build 2540/release

Video
ID : 0
Format : MPEG-4 Visual
Format profile : Advanced Simple@L5
Format settings, BVOP : 1
Format settings, QPel : No
Format settings, GMC : No warppoints
Format settings, Matrix : Custom
Codec ID : XVID
Codec ID/Hint : XviD
Duration : 1h 32mn
Bit rate : 983 Kbps
Width : 688 pixels
Height : 384 pixels
Display aspect ratio : 16:9
Frame rate : 25.000 fps
Color space : YUV
Chroma subsampling : 4:2:0
Bit depth : 8 bits
Scan type : Progressive
Compression mode : Lossy
Bits/(Pixel*Frame) : 0.149
Stream size : 653 MiB (88%)
Writing library : XviD 1.2.1 (UTC 2008-12-04)

Audio
ID : 1
Format : MPEG Audio
Format version : Version 1
Format profile : Layer 3
Codec ID : 55
Codec ID/Hint : MP3
Duration : 1h 32mn
Bit rate mode : Constant
Bit rate : 128 Kbps
Channel(s) : 2 channels
Sampling rate : 48.0 KHz
Compression mode : Lossy
Stream size : 85.1 MiB (11%)
Alignment : Aligned on interleaves
Interleave, duration : 40 ms (1.00 video frame)
Interleave, preload duration : 504 ms
Writing library : LAME3.98r
Encoding settings : -m s -V 4 -q 2 -lowpass 17 -b 128


Приятного просмотра господа!
загрузка...
Правила, инструкции, FAQ!!!
Торрент  Добавлен [28 янв 2013, 19:02] Скачать торрент
Скачать торрент
[ Размер 14.96 КБ / Просмотров 11 ]

Статус
Проверен 
 
Размер  744.96 МБ
Приватный: Нет (DHT включён)
.torrent скачан  214
Как залить торрент? | Как скачать Torrent? | Как смотреть и слушать онлайн?  


     Отправить личное сообщение
   
Страница 1 из 1
Показать сообщения за:  Поле сортировки  
Начать новую тему Ответить на тему

   Похожие торренты   Автор   Ответы   Просмотры   Последнее сообщение 
В этой теме нет новых непрочитанных сообщений. Скачать торрент Проверен [iPad] Потомки / The Descendants (Александр Пэйн / Alexander Payne) [2011 г., США, драма, комедия, BDRip]

в форуме Фильмы для iPod, iPhone, iPad, Размер: 2.13 ГБ, Здоровье: 100%

Гость

0
7|2

44
0

18 май 2015, 10:50

Гость Перейти к последнему сообщению

В этой теме нет новых непрочитанных сообщений. Скачать торрент Проверен [iPad] На обочине / Sideways (Александр Пэйн/ Alexander Payne) [2004, США, Комедия, мелодрама, драма, BDRip, 576p] Dub + Original + sub (rus, eng)

в форуме Фильмы для iPod, iPhone, iPad, Размер: 2.19 ГБ, Здоровье: 100%

Anonymous

0
30|10

41
0

14 май 2015, 00:02

Anonymous Перейти к последнему сообщению

В этой теме нет новых непрочитанных сообщений. Скачать торрент Небраска / Nebraska (Александр Пэйн / Alexander Payne) [2013, США, Драма, BDRip]

в форуме Драмы, Мелодрамы, Размер: 1.46 ГБ, Здоровье: 0%

Anonymous

0
0|0

42
0

03 мар 2014, 20:34

Anonymous Перейти к последнему сообщению

В этой теме нет новых непрочитанных сообщений. Скачать торрент Проверен [iPad] Небраска / Nebraska (Александр Пэйн / Alexander Payne ) [2013, США, Драма, BDRip, SD (576p)] MVO + Original + sub (rus, eng)

в форуме Фильмы для iPod, iPhone, iPad, Размер: 2 ГБ, Здоровье: 100%

Гость

0
39|13

39
1

18 май 2015, 10:33

Гость Перейти к последнему сообщению

В этой теме нет новых непрочитанных сообщений. Скачать торрент Макс Пэйн / Max Payne (Джон Мур / John Moore) [2008 г., боевик, триллер, драма, криминал, детектив, BDRip] [Unrated] Dub + Mvo (Киномания) + Original + Subs (Rus, Rus Forced, Eng)

в форуме Боевики, Размер: 2.51 ГБ, Здоровье: 100%

Anonymous

0
14|5

88
0

19 фев 2014, 11:40

Anonymous Перейти к последнему сообщению



Сейчас этот форум просматривают: нет зарегистрированных пользователей и гости: 2


Вы не можете начинать темы
Вы не можете отвечать на сообщения
Вы не можете редактировать свои сообщения
Вы не можете удалять свои сообщения
Вы не можете добавлять вложения

Перейти:  

!ВНИМАНИЕ!
 Ресурс не предоставляет электронные версии произведений, а занимается лишь коллекционированием и каталогизацией ссылок, присылаемых и публикуемых на форуме нашими читателями. Если вы являетесь правообладателем какого-либо представленного материала и не желаете чтобы ссылка на него находилась в нашем каталоге, свяжитесь с нами и мы незамедлительно удалим её. Файлы для обмена на трекере предоставлены пользователями сайта, и администрация не несёт ответственности за их содержание. Просьба не заливать файлы, защищенные авторскими правами, а также файлы нелегального содержания!