На всех торрентах на трекере установлена скидка на скачивание в размере 100 процентов(а).
 Возможность скачивания торрента НЕ зависит от ограничений при низком ратио, низком аплоаде, требуемом ратио или требуемом аплоаде.


Начать новую тему Ответить на тему
Статистика раздачи
Размер: 1.68 ГБ | Добавлен: 15 июн 2014, 09:17 | Скачали: 0
Сидеров: 48  [0 байт/сек]    Личеров: 1  [0 байт/сек]
Пред. тема | След. тема 

Автор
Сообщение

СообщениеДобавлено: 15 июн 2014, 09:17 

Танцуй отсюда! / Cuban Fury (2014) HDRip

«Реальные мужики зажигают»
Год выпуска: 2014
Производство: Великобритания / Big Talk Productions
Жанр: комедия

Режиссер: Джеймс Гриффитс
Сценарий: Джон Браун, Ник Фрост
Продюсер: Джеймс Биддл, Найра Парк, Дженни Боргарс
Актеры: Ник Фрост, Рашида Джонс, Крис О'Дауд, Иэн МакШейн, Бен Рэдклифф, Изабелла Стейнбарт, Брэндон Робинсон, Луис Кайриаку, Киран Гаффни, Стив Орам

Описание фильма:
Чтобы завоевать сердце прекрасной начальницы, одному в меру упитанному мужчине предстоит растрясти свои таланты в соревновании на самый зажигательный танец. Однако у него есть соперник, который не постесняется опуститься до очень грязных приемов.

Перевод: одноголосый закадровый, любительский
Озвучка: PashaUP
Субтитры: отсутствуют



Ограничения по возрасту: 16+ (зрителям, достигшим 16 лет)
Рейтинг MPAA: R (лицам до 17 лет обязательно присутствие взрослого)

Дата мировой премьеры: 13 февраля 2014
Дата российской премьеры: 24 апреля 2014, «Вольга»
Дата выхода DVD релиза: 23 июня 2014, «Вольга»

Продолжительность: 01:37:53
Качество видео: HDRip

Видеокодек: XviD
Битрейт видео: ~1998 kbps
Размер кадра: 720x300
Аудиокодек: AC3, 6 ch
Битрейт аудио: 448 kbps, 48kHz
    В сцене, где Брюс и Дрю танцуют на парковке, им сигналит автомобиль. В этом автомобиле сидел Саймон Пегг.
Код:
Код:
Общее
Полное имя                               : Cuban.Fury.2014.BDRip.avi
Формат                                   : AVI
Формат/Информация                        : Audio Video Interleave
Размер файла                             : 1,68 Гбайт
Продолжительность                        : 1 ч. 37 м.
Общий поток                              : 2456 Кбит/сек
Название фильма                          : RARBG.COM - Cuban Fury.2014.BRRip.XviD.AC3-RARBG
Программа кодирования                    : VirtualDubMod 1.5.10.2 (build 2540/release)
Библиотека кодирования                   : VirtualDubMod build 2540/release
Примечание                               : RARBG.COM - Cuban Fury.2014.BRRip.XviD.AC3-RARBG

Видео
Идентификатор                            : 0
Формат                                   : MPEG-4 Visual
Профиль формата                          : Simple@L5
Параметр BVOP формата                    : Нет
Параметр QPel формата                    : Нет
Параметр GMC формата                     : Без точки перехода
Параметр матрицы формата                 : Default (H.263)
Идентификатор кодека                     : XVID
Идентификатор кодека/Подсказка           : XviD
Продолжительность                        : 1 ч. 37 м.
Битрейт                                  : 1998 Кбит/сек
Ширина                                   : 720 пикселей
Высота                                   : 300 пикселей
Соотношение сторон                       : 2,40:1
Частота кадров                           : 23,976 кадра/сек
Цветовое пространство                    : YUV
Субдискретизация насыщенности            : 4:2:0
Битовая глубина                          : 8 бит
Тип развёртки                            : Прогрессивная
Метод сжатия                             : С потерями
Бит/(Пиксели*Кадры)                      : 0.386
Размер потока                            : 1,37 Гбайт (81%)
Библиотека кодирования                   : Lavc55.61.100

Аудио
Идентификатор                            : 1
Формат                                   : AC-3
Формат/Информация                        : Audio Coding 3
Расширение режима                        : CM (complete main)
Параметр Endianness формата              : Big
Идентификатор кодека                     : 2000
Продолжительность                        : 1 ч. 37 м.
Вид битрейта                             : Постоянный
Битрейт                                  : 448 Кбит/сек
Каналы                                   : 6 каналов
Расположение каналов                     : Front: L C R, Side: L R, LFE
Частота                                  : 48,0 КГц
Битовая глубина                          : 16 бит
Метод сжатия                             : С потерями
Размер потока                            : 314 Мбайт (18%)
Выравнивание                             : Разделение по промежуткам
Продолжительность промежутка             : 42  мс. (1,00 видеокадр)
Время предзагрузки промежутка            : 500  мс.
Скриншоты:



загрузка...
Правила, инструкции, FAQ!!!
Торрент  Добавлен [15 июн 2014, 09:17] Скачать торрент
Скачать торрент
[ Размер 17.59 КБ / Просмотров 7 ]

Статус
Проверен 
 
Размер  1.68 ГБ
Приватный: Нет (DHT включён)
.torrent скачан  0
Как залить торрент? | Как скачать Torrent? | Как смотреть и слушать онлайн?  


     Отправить личное сообщение
   
Страница 1 из 1
Показать сообщения за:  Поле сортировки  
Начать новую тему Ответить на тему

   Похожие торренты   Автор   Ответы   Просмотры   Последнее сообщение 
В этой теме нет новых непрочитанных сообщений. Скачать торрент Проверен Танцуй отсюда! / Cuban Fury (2014) BDRip 720p | L1

в форуме 720p | 1080p, Размер: 3.58 ГБ, Здоровье: 0%

Anonymous

0
0|0

18
0

15 июн 2014, 08:50

Anonymous Перейти к последнему сообщению

В этой теме нет новых непрочитанных сообщений. Скачать торрент Проверен Танцуй отсюда! / Cuban Fury (2014) BDRip 720p от Leonardo and Scarabey | Лицензия

в форуме 720p | 1080p, Размер: 2.84 ГБ, Здоровье: 100%

Anonymous

0
155|3

33
1365

08 сен 2014, 21:45

Anonymous Перейти к последнему сообщению

В этой теме нет новых непрочитанных сообщений. Скачать торрент Проверен [TR24][OF] Chucho Valdés & The Afro-Cuban Messengers - Chucho's Steps - 2010 (Jazz, Cuban)

в форуме Hi-Res stereo (Джаз и Блюз), Размер: 1.42 ГБ, Здоровье: 100%

Anonymous

0
2|1

10
0

27 авг 2016, 12:42

Anonymous Перейти к последнему сообщению

В этой теме нет новых непрочитанных сообщений. Скачать торрент Проверен [TR24][OF] Chucho Valdés (Valdes) & The Afro-Cuban Messengers - Border-Free - 2013 (Afro-Cuban Jazz, Post-Bop, World Fusion)

в форуме Hi-Res stereo (Джаз и Блюз), Размер: 1.43 ГБ, Здоровье: 33%

Anonymous

0
2|6

6
0

27 авг 2016, 14:36

Anonymous Перейти к последнему сообщению

В этой теме нет новых непрочитанных сообщений. Скачать торрент Проверен (Melodic Hard Rock) Fury (Canada) - Fury - 1993 (2002), MP3, 320 kbps

в форуме AOR (Melodic Hard Rock, Arena rock), Размер: 118.23 МБ, Здоровье: 0%

Anonymous

0
0|0

8
0

08 окт 2016, 11:09

Anonymous Перейти к последнему сообщению



Сейчас этот форум просматривают: нет зарегистрированных пользователей и гости: 1


Вы не можете начинать темы
Вы не можете отвечать на сообщения
Вы не можете редактировать свои сообщения
Вы не можете удалять свои сообщения
Вы не можете добавлять вложения

Перейти:  

!ВНИМАНИЕ!
 Ресурс не предоставляет электронные версии произведений, а занимается лишь коллекционированием и каталогизацией ссылок, присылаемых и публикуемых на форуме нашими читателями. Если вы являетесь правообладателем какого-либо представленного материала и не желаете чтобы ссылка на него находилась в нашем каталоге, свяжитесь с нами и мы незамедлительно удалим её. Файлы для обмена на трекере предоставлены пользователями сайта, и администрация не несёт ответственности за их содержание. Просьба не заливать файлы, защищенные авторскими правами, а также файлы нелегального содержания!