На всех торрентах на трекере установлена скидка на скачивание в размере 100 процентов(а).
 Возможность скачивания торрента НЕ зависит от ограничений при низком ратио, низком аплоаде, требуемом ратио или требуемом аплоаде.


Начать новую тему Ответить на тему
Статистика раздачи
Размер: 1.37 ГБ | Добавлен: 27 окт 2012, 11:08 | Скачали: 0
Сидеров: 0  [0 байт/сек]    Личеров: 0  [0 байт/сек]
Пред. тема | След. тема 

Автор
Сообщение

СообщениеДобавлено: 27 окт 2012, 11:08 

Безопасность не гарантируется



Описание: Три журналиста получают задание встретиться с парнем, разместившим очень странное объявление, в котором он ищет себе попутчика для путешествий во времени, и взять у него интервью.

Страна: США
Жанр: комедия
Год выпуска: 2012
Продолжительность: 01:25:51
Перевод: Одноголосый закадровый (меломан)
Cубтитры: русские
Оригинальная аудиодорожка: английский

Режиссер: Колин Треворроу / Colin Trevorrow

В фильме снимались: Обри Плаза, Бейзил Харрис, Мэри Линн Райскаб, Джэйк М. Джонсон, Каран Сони, Дэвид Шульц, Джефф Гарлин, Марк Дюпласс, Уильям Холл мл., Элис Хунг



рейтинг MPAA R - лицам до 17 лет обязательно присутствие взрослого




Качество видео: HDRip
Формат видео: AVI
Видео: XVID, 720x304, 2.35:1, 23.976 fps, 1905 kbps
Аудио: mp3, 48 kHz, 192 kbps, stereo - русский
Аудио 2: mp3, 48 kHz, 192 kbps, stereo - english (оригинал)
Формат субтитров: softsub (SRT)

General
Complete name : Safety Not Guaranteed (2012) HDRip.avi
Format : AVI
Format/Info : Audio Video Interleave
File size : 1.37 GiB
Duration : 1h 25mn
Overall bit rate : 2 303 Kbps
Writing application : VirtualDubMod 1.5.10.2 (build 2540/release)
Writing library : VirtualDubMod build 2540/release
Video
ID : 0
Format : MPEG-4 Visual
Format profile : Advanced Simple@L5
Format settings, BVOP : 2
Format settings, QPel : No
Format settings, GMC : No warppoints
Format settings, Matrix : Default (MPEG)
Codec ID : XVID
Codec ID/Hint : XviD
Duration : 1h 25mn
Bit rate : 1 905 Kbps
Width : 720 pixels
Height : 304 pixels
Display aspect ratio : 2.35:1
Frame rate : 23.976 fps
Color space : YUV
Chroma subsampling : 4:2:0
Bit depth : 8 bits
Scan type : Progressive
Compression mode : Lossy
Bits/(Pixel*Frame) : 0.363
Stream size : 1.14 GiB (83%)
Writing library : XviD 1.2.1 (UTC 2008-12-04)
Audio #1
ID : 1
Format : MPEG Audio
Format version : Version 1
Format profile : Layer 3
Codec ID : 55
Codec ID/Hint : MP3
Duration : 1h 25mn
Bit rate mode : Constant
Bit rate : 192 Kbps
Channel(s) : 2 channels
Sampling rate : 48.0 KHz
Compression mode : Lossy
Stream size : 117 MiB (8%)
Alignment : Split accross interleaves
Interleave, duration : 42 ms (1.00 video frame)
Interleave, preload duration : 500 ms
Audio #2
ID : 2
Format : MPEG Audio
Format version : Version 1
Format profile : Layer 3
Codec ID : 55
Codec ID/Hint : MP3
Duration : 1h 25mn
Bit rate mode : Constant
Bit rate : 192 Kbps
Channel(s) : 2 channels
Sampling rate : 48.0 KHz
Compression mode : Lossy
Stream size : 117 MiB (8%)
Alignment : Split accross interleaves
Interleave, duration : 42 ms (1.00 video frame)
Interleave, preload duration : 500 ms


Приятного просмотра!
загрузка...
Правила, инструкции, FAQ!!!
Торрент  Добавлен [27 окт 2012, 11:08] Скачать торрент
Скачать торрент
[ Размер 14.51 КБ / Просмотров 29 ]

Статус
Проверен 
 
Размер  1.37 ГБ
Приватный: Нет (DHT включён)
.torrent скачан  0
Как залить торрент? | Как скачать Torrent? | Как смотреть и слушать онлайн?  


     Отправить личное сообщение
   
Страница 1 из 1
Показать сообщения за:  Поле сортировки  
Начать новую тему Ответить на тему

   Похожие торренты   Автор   Ответы   Просмотры   Последнее сообщение 
В этой теме нет новых непрочитанных сообщений. Скачать торрент Проверен Безопасность вещей / The Safety of Objects (2001) DVDRip | Инис

в форуме Драмы, Мелодрамы, Размер: 1.45 ГБ, Здоровье: 100%

Гость

0
56|41

161
18

05 июл 2015, 22:09

Гость Перейти к последнему сообщению

В этой теме нет новых непрочитанных сообщений. Скачать торрент Проверен Колин Декстер / Colin Dexter - Путь сквозь лес / The Way Through the Woods [1996, rtf, fb2]

в форуме Детективы и Боевики, Размер: 1.91 МБ, Здоровье: 0%

Anonymous

0
0|0

0
0

09 сен 2016, 00:11

Anonymous Перейти к последнему сообщению

В этой теме нет новых непрочитанных сообщений. Скачать торрент Проверен Колин Харрисон/Colin Harrison - Собрание сочинений [1990-2008, FB2, RTF, RUS]

в форуме Детективы и Боевики, Размер: 14.33 МБ, Здоровье: 0%

Anonymous

0
0|0

3
0

08 сен 2016, 21:45

Anonymous Перейти к последнему сообщению

В этой теме нет новых непрочитанных сообщений. Скачать торрент Проверен [iPad] Сердце дракона 3: Проклятье чародея / Dragonheart 3: The Sorcerer's Curse (Колин Тиг / Colin Teague ) [2015, США, Фэнтези, приключения, BDRip, SD (576p)] DUB + Original + sub (rus, eng)

в форуме Фильмы для iPod, iPhone, iPad, Размер: 1.71 ГБ, Здоровье: 100%

Гость

0
19|6

35
0

14 май 2015, 00:25

Гость Перейти к последнему сообщению

В этой теме нет новых непрочитанных сообщений. Скачать торрент Проверен (Classical) Hector Berlioz - L'oeuvre pour orchestre / Complete Orchestral Works / Гектор Берлиоз - Полное собрание оркестровых произведений (Colin Davis / Колин Дэвис, 1965-1980) - 1997 [6 CD], FLAC (tracks+.cue) lossless

в форуме Классика, Размер: 1.78 ГБ, Здоровье: 100%

Anonymous

0
21|7

4
0

06 окт 2016, 23:27

Anonymous Перейти к последнему сообщению



Сейчас этот форум просматривают: нет зарегистрированных пользователей и гости: 1


Вы не можете начинать темы
Вы не можете отвечать на сообщения
Вы не можете редактировать свои сообщения
Вы не можете удалять свои сообщения
Вы не можете добавлять вложения

Перейти:  

!ВНИМАНИЕ!
 Ресурс не предоставляет электронные версии произведений, а занимается лишь коллекционированием и каталогизацией ссылок, присылаемых и публикуемых на форуме нашими читателями. Если вы являетесь правообладателем какого-либо представленного материала и не желаете чтобы ссылка на него находилась в нашем каталоге, свяжитесь с нами и мы незамедлительно удалим её. Файлы для обмена на трекере предоставлены пользователями сайта, и администрация не несёт ответственности за их содержание. Просьба не заливать файлы, защищенные авторскими правами, а также файлы нелегального содержания!