На всех торрентах на трекере установлена скидка на скачивание в размере 100 процентов(а).
 Возможность скачивания торрента НЕ зависит от ограничений при низком ратио, низком аплоаде, требуемом ратио или требуемом аплоаде.


Начать новую тему Ответить на тему
Статистика раздачи
Размер: 1.46 ГБ | Добавлен: 16 янв 2013, 22:17 | Скачали: 0
Сидеров: 5  [0 байт/сек]    Личеров: 1  [0 байт/сек]
Пред. тема | След. тема 

Автор
Сообщение

СообщениеДобавлено: 16 янв 2013, 22:17 

Остров сокровищ Маппетов / Muppet Treasure Island



Описание: Лягушонок Кермит и его друзья продолжают вести войну против безжалостных пиратов. А заодно они отправляются в большое морское путешествие, чтобы найти сокровища.

Страна: США
Жанр: Комедия, приключения, семейный
Год выпуска: 1996
Продолжительность: 01:35:16

Перевод: Профессиональный (многоголосый закадровый) Доп.инфо о переводе SDI Media Group
Cубтитры: нет
Режиссер: Брайан Хенсон /Brian Henson

В фильме снимались: Тим Карри, Кевин Бишоп, Билли Коннолли, Дженнифер Сoндерс, Дэйв Гольц, Стив Уитмир, Джерри Нельсон, Кевин Клэш, Билл Барретта, Джон Хенсон





Качество видео: HDTVRip
Формат видео: AVI

Видео: 720x400 (1.80:1), 25 fps, XviD MPEG-4 ~1994 kbps avg, 0.28 bit/pixel
Аудио: 48 kHz, AC3 Dolby Digital, 2/0 (L,R) ch, ~192.00 kbps avg




D:\ФИЛЬМЫ\Muppet.Treasure.Island_[torrents.ru]_by_RAmiRA.avi
General
Complete name : D:\ФИЛЬМЫ\Muppet.Treasure.Island_[torrents.ru]_by_RAmiRA.avi
Format : AVI
Format/Info : Audio Video Interleave
File size : 1.46 GiB
Duration : 1h 35mn
Overall bit rate : 2 196 Kbps
Writing application : VirtualDubModRus 1.5.10.2 (build 2540/release)
Writing library : VirtualDubMod build 2540/release
Video
Format : MPEG-4 Visual
Format profile : Streaming Video@L1
Format settings, BVOP : Yes
Format settings, QPel : No
Format settings, GMC : No warppoints
Format settings, Matrix : Default
Muxing mode : Packed bitstream
Codec ID : XVID
Codec ID/Hint : XviD
Duration : 1h 35mn
Bit rate : 1 995 Kbps
Width : 720 pixels
Height : 400 pixels
Display aspect ratio : 16/9
Frame rate : 25.000 fps
Resolution : 24 bits
Colorimetry : 4:2:0
Scan type : Progressive
Bits/(Pixel*Frame) : 0.277
Stream size : 1.33 GiB (91%)
Writing library : XviD 50
Audio
Format : AC-3
Format/Info : Audio Coding 3
Codec ID : 2000
Duration : 1h 35mn
Bit rate mode : Constant
Bit rate : 192 Kbps
Channel(s) : 2 channels
Channel positions : L R
Sampling rate : 48.0 KHz
Video delay : 8ms
Stream size : 131 MiB (9%)
Alignment : Split accross interleaves
Interleave, duration : 40 ms (1.00 video frame)
Interleave, preload duration : 500 ms


Приятного просмотра!
загрузка...
Правила, инструкции, FAQ!!!
Торрент  Добавлен [16 янв 2013, 22:17] Скачать торрент
Скачать торрент
[ Размер 15.13 КБ / Просмотров 14 ]

Статус
Проверен 
 
Размер  1.46 ГБ
Приватный: Нет (DHT включён)
.torrent скачан  0
Как залить торрент? | Как скачать Torrent? | Как смотреть и слушать онлайн?  


     Отправить личное сообщение
   
Страница 1 из 1
Показать сообщения за:  Поле сортировки  
Начать новую тему Ответить на тему

   Похожие торренты   Автор   Ответы   Просмотры   Последнее сообщение 
В этой теме нет новых непрочитанных сообщений. Скачать торрент Проверен Остров сокровищ / Treasure Island (1990) WEB-DLRip | D

в форуме Приключения, Размер: 1.46 ГБ, Здоровье: 100%

Anonymous

0
94|33

214
91

25 июл 2015, 23:05

Anonymous Перейти к последнему сообщению

В этой теме нет новых непрочитанных сообщений. Скачать торрент Проверен Остров сокровищ / Treasure Island (1990) WEB-DL 720p | D, P, A

в форуме 720p | 1080p, Размер: 4.79 ГБ, Здоровье: 100%

Гость

0
139|70

84
181

25 июл 2015, 23:01

Гость Перейти к последнему сообщению

В этой теме нет новых непрочитанных сообщений. Скачать торрент Проверен Путешествие 2: Таинственный остров в 3Д / Journey 2: The Mysterious Island 3D (Брэд Пейтон / Brad Peyton) [2012, Фантастика, Приключения, Комедия, Семейный, BDrip-AVC] Half OverUnder / Вертикальная анаморфная стереопара

в форуме HD-Video в 3D, Размер: 13.46 ГБ, Здоровье: 100%

Anonymous

0
56|19

129
0

10 июл 2014, 14:27

Anonymous Перейти к последнему сообщению

В этой теме нет новых непрочитанных сообщений. Скачать торрент Проверен Остров сокровищ (Евгений Фридман) [1971, Приключения, DVDRip-AVC]

в форуме Детское, Семейное кино, Размер: 1.45 ГБ, Здоровье: 100%

Anonymous

0
38|8

42
1

11 апр 2016, 23:42

Anonymous Перейти к последнему сообщению

В этой теме нет новых непрочитанных сообщений. Скачать торрент Проверен Стивенсон, Роберт Льюис - «Остров сокровищ» [Александр Клюквин, 2010, Приключения, 192 kbps]

в форуме Аудиокниги (AAC, ALAC), Размер: 456.05 МБ, Здоровье: 100%

Anonymous

0
11|4

7
0

28 авг 2016, 20:15

Anonymous Перейти к последнему сообщению



Сейчас этот форум просматривают: нет зарегистрированных пользователей и гости: 2


Вы не можете начинать темы
Вы не можете отвечать на сообщения
Вы не можете редактировать свои сообщения
Вы не можете удалять свои сообщения
Вы не можете добавлять вложения

Перейти:  

!ВНИМАНИЕ!
 Ресурс не предоставляет электронные версии произведений, а занимается лишь коллекционированием и каталогизацией ссылок, присылаемых и публикуемых на форуме нашими читателями. Если вы являетесь правообладателем какого-либо представленного материала и не желаете чтобы ссылка на него находилась в нашем каталоге, свяжитесь с нами и мы незамедлительно удалим её. Файлы для обмена на трекере предоставлены пользователями сайта, и администрация не несёт ответственности за их содержание. Просьба не заливать файлы, защищенные авторскими правами, а также файлы нелегального содержания!