На всех торрентах на трекере установлена скидка на скачивание в размере 100 процентов(а).
 Возможность скачивания торрента НЕ зависит от ограничений при низком ратио, низком аплоаде, требуемом ратио или требуемом аплоаде.


Начать новую тему Ответить на тему
Статистика раздачи
Размер: 1.37 ГБ | Добавлен: 17 май 2014, 20:08 | Скачали: 0
Сидеров: 0  [0 байт/сек]    Личеров: 0  [0 байт/сек]
Пред. тема | След. тема 

Автор
Сообщение

СообщениеДобавлено: 17 май 2014, 20:08 

Путешествие / The Trip


Страна: Великобритания
Жанр: комедия
Год выпуска: 2010
Продолжительность: 01:47:02

Перевод: Одноголосый закадровый [перевод JacobSSoN, закадровый текст читал Вячеслав Замез.]
Cубтитры: нет
Оригинальная аудиодорожка: нет

Режиссер: Майкл Уинтерботтом / Michael Winterbottom

В ролях: Стив Куган, Роб Брайдон, Пол Попплуэлл, Марго Стилли, Клер Килен, Ребекка Джонсон, Доля Гавански, Керри Шейл, Мерсе Рибо, Майкл Беннетт

Описание: Два заклятых друга отправляются в тур по ресторанам северной Англии. Кинофильм, смонтированный из одноименного телефильма или телесериала, кому как удобнее, который был номинирован на премию BAFTA. Видные английские комики Стив Куган и Роб Брайдон играют утрированные (или нет) версии самих себя, ругаясь между собой, пародируя разных знаменитостей и цитируя английскую классику в течении одной увлекательной недели.

Сэмпл: http://sendfile.su/827616

Качество видео: DVDRip
Формат видео: AVI

Видео: Video: 720x384 (1.88:1), 25 fps, XviD build 50 ~1373 kbps avg, 0.20 bit/pixel
Аудио: Audio: 48 kHz, AC3 Dolby Digital, 3/2 (L,C,R,l,r) + LFE ch, ~448.00 kbps avgMediaInfo
Общее
Полное имя : The.trip.2010.DVDRip.avi
Формат : AVI
Формат/Информация : Audio Video Interleave
Размер файла : 1,37 Гбайт
Продолжительность : 1 ч. 47 м.
Общий поток : 1831 Кбит/сек
Программа кодирования : VirtualDubMod 1.5.10.3 | www.virtualdub-fr.org || (build 2550/release)
Библиотека кодирования : VirtualDubMod build 2550/release

Видео
Идентификатор : 0
Формат : MPEG-4 Visual
Профиль формата : Advanced Simple@L5
Параметр BVOP формата : 1
Параметр QPel формата : Нет
Параметр GMC формата : Без точки перехода
Параметр матрицы формата : Выборочная
Идентификатор кодека : XVID
Идентификатор кодека/Подсказка : XviD
Продолжительность : 1 ч. 47 м.
Битрейт : 1373 Кбит/сек
Ширина : 720 пикс.
Высота : 384 пикс.
Соотношение сторон : 1,875
Частота кадров : 25,000 кадр/сек
Цветовое пространство : YUV
Подвыборка цветности : 4:2:0
Битовая глубина : 8 бит
Тип развёртки : Прогрессивная
Метод сжатия : С потерями
Бит/(Пиксели*Кадры) : 0.199
Размер потока : 1,03 Гбайт (75%)
Библиотека кодирования : XviD 1.2.1 (UTC 2008-12-04)

Аудио
Идентификатор : 1
Формат : AC-3
Формат/Информация : Audio Coding 3
Расширение режима : CM (complete main)
Идентификатор кодека : 2000
Продолжительность : 1 ч. 47 м.
Вид битрейта : Постоянный
Битрейт : 448 Кбит/сек
Канал(ы) : 6 канала(ов)
Расположение каналов : Front: L C R, Side: L R, LFE
Частота : 48,0 КГц
Битовая глубина : 16 бит
Метод сжатия : С потерями
Размер потока : 343 Мбайт (24%)
Выравнивание : Разделение по промежуткам
Продолжительность промежутка : 40 мс. (1,00 видеокадр)
Время предзагрузки промежутка : 500 ms
Скриншоты
загрузка...
Правила, инструкции, FAQ!!!
Торрент  Добавлен [17 май 2014, 20:08] Скачать торрент
Скачать торрент
[ Размер 14.17 КБ / Просмотров 12 ]

Статус  
 
Размер  1.37 ГБ
Приватный: Нет (DHT включён)
.torrent скачан  0
Как залить торрент? | Как скачать Torrent? | Как смотреть и слушать онлайн?  


     Отправить личное сообщение
   
Страница 1 из 1
Показать сообщения за:  Поле сортировки  
Начать новую тему Ответить на тему

   Похожие торренты   Автор   Ответы   Просмотры   Последнее сообщение 
В этой теме нет новых непрочитанных сообщений. Скачать торрент 40 дней и 40 ночей / 40 Days and 40 Nights (Майкл Леманн / Michael Lehmann) [2002, США, Франция, Великобритания, Комедия, мелодрама, драма, HDRip]Dub

в форуме Комедии, Размер: 2.21 ГБ, Здоровье: 100%

Anonymous

0
5|1

55
0

26 апр 2014, 20:56

Anonymous Перейти к последнему сообщению

В этой теме нет новых непрочитанных сообщений. Скачать торрент Глухой пролёт / Все из-за Пита Тонга / It's All Gone Pete Tong (Майкл Даус / Michael Dowse) [2004, Канада, Великобритания, комедия, драма, музыка, HDRip]

в форуме Комедии, Размер: 744.74 МБ, Здоровье: 0%

Anonymous

0
0|0

47
0

22 апр 2014, 11:39

Anonymous Перейти к последнему сообщению

В этой теме нет новых непрочитанных сообщений. Скачать торрент Магнаты / Воротилы / The Moguls / The Amateurs (Майкл Трагер / Michael Traeger) [2005 г., Комедия, DVDRip]

в форуме Комедии, Размер: 1.47 ГБ, Здоровье: 0%

Anonymous

0
0|0

51
0

24 апр 2014, 14:09

Anonymous Перейти к последнему сообщению

В этой теме нет новых непрочитанных сообщений. Скачать торрент Лихорадка по девчонкам / Girl Fever (Майкл Дэвис / Michael Davis) [2002 г., комедия, мелодрама, DVDRip]

в форуме Комедии, Размер: 1.45 ГБ, Здоровье: 100%

Anonymous

0
17|5

62
4

24 апр 2014, 14:09

Anonymous Перейти к последнему сообщению

В этой теме нет новых непрочитанных сообщений. Скачать торрент Летние игры / Summer Catch (Майкл Толлин / Michael Tollin) [2001 г., Комедия, мелодрама, спорт, DVDRip]

в форуме Комедии, Размер: 803.88 МБ, Здоровье: 0%

Anonymous

0
0|0

58
0

26 апр 2014, 20:58

Anonymous Перейти к последнему сообщению



Сейчас этот форум просматривают: нет зарегистрированных пользователей и гости: 1


Вы не можете начинать темы
Вы не можете отвечать на сообщения
Вы не можете редактировать свои сообщения
Вы не можете удалять свои сообщения
Вы не можете добавлять вложения

Перейти:  

!ВНИМАНИЕ!
 Ресурс не предоставляет электронные версии произведений, а занимается лишь коллекционированием и каталогизацией ссылок, присылаемых и публикуемых на форуме нашими читателями. Если вы являетесь правообладателем какого-либо представленного материала и не желаете чтобы ссылка на него находилась в нашем каталоге, свяжитесь с нами и мы незамедлительно удалим её. Файлы для обмена на трекере предоставлены пользователями сайта, и администрация не несёт ответственности за их содержание. Просьба не заливать файлы, защищенные авторскими правами, а также файлы нелегального содержания!