На всех торрентах на трекере установлена скидка на скачивание в размере 100 процентов(а).
 Возможность скачивания торрента НЕ зависит от ограничений при низком ратио, низком аплоаде, требуемом ратио или требуемом аплоаде.


Начать новую тему Ответить на тему
Статистика раздачи
Размер: 1.37 ГБ | Добавлен: 17 май 2014, 07:17 | Скачали: 0
Сидеров: 0  [0 байт/сек]    Личеров: 1  [0 байт/сек]
Пред. тема | След. тема 

Автор
Сообщение

СообщениеДобавлено: 17 май 2014, 07:17 

Снова 16 / 16 ans ou presque

Страна: Франция
Жанр: комедия
Год выпуска: 2013
Продолжительность: 01:27:12

Перевод: Профессиональный (дублированный) Line
Cубтитры: нет
Оригинальная аудиодорожка: нет

Режиссер: Тристан Сегуэла / Tristan Séguéla

В ролях: Лоран Лафитт, Виктор Джордж, Кристоф Малавуа, Джудит Эль Зейн, Джонатан Коэн, Франсуа Роллин, Анн Кановас, Пабло Поли, Александр Принц, Thomas Bonsang

Описание: Арно Мюстье — само олицетворение успеха. Юрист и красноречивый философ, который своими словами умеет завести слушателей в тупик. Но в один прекрасный момент все начинает рушиться. Пара прыщей, странное поведение — и Арно получает диагноз — С. П. — синдром подростка. Это одно из редчайших расстройств, которым страдают взрослые мужчины, вновь проходя через кризис шестнадцати лет. Арно открывает для себя целый мир подростков, удивляя своим поведением всех окружающих. И первым, кто видит героя в новом «амплуа», оказывается его собственный брат-подросток.



Сэмпл: http://multi-up.com/972379

Качество видео: HDRip
Формат видео: AVI

Видео: Xvid 720x304 24fps 2 041 Kbps
Аудио: Dolby AC3 48000Hz stereo 192kbps

MediaInfo
General
Complete name : D:\Snova.16.2013.D.HDRip.1400Mb.avi
Format : AVI
Format/Info : Audio Video Interleave
File size : 1.37 GiB
Duration : 1h 27mn
Overall bit rate : 2 243 Kbps
Writing application : VirtualDubMod 1.5.10.2 (build 2540/release)
Writing library : VirtualDubMod build 2540/release

Video
ID : 0
Format : MPEG-4 Visual
Format profile : Advanced Simple@L5
Format settings, BVOP : Yes
Format settings, QPel : No
Format settings, GMC : No warppoints
Format settings, Matrix : Default (MPEG)
Codec ID : XVID
Codec ID/Hint : XviD
Duration : 1h 27mn
Bit rate : 2 041 Kbps
Width : 720 pixels
Height : 304 pixels
Display aspect ratio : 2.35:1
Frame rate : 24.000 fps
Color space : YUV
Chroma subsampling : 4:2:0
Bit depth : 8 bits
Scan type : Progressive
Compression mode : Lossy
Bits/(Pixel*Frame) : 0.389
Stream size : 1.24 GiB (91%)
Writing library : XviD 1.2.1 (UTC 2008-12-04)

Audio
ID : 1
Format : AC-3
Format/Info : Audio Coding 3
Mode extension : CM (complete main)
Format settings, Endianness : Big
Codec ID : 2000
Duration : 1h 27mn
Bit rate mode : Constant
Bit rate : 192 Kbps
Channel count : 2 channels
Channel positions : Front: L R
Sampling rate : 48.0 KHz
Bit depth : 16 bits
Compression mode : Lossy
Stream size : 120 MiB (9%)
Alignment : Split accross interleaves
Interleave, duration : 42 ms (1.00 video frame)
Interleave, preload duration : 500 ms


Скриншоты
загрузка...
Правила, инструкции, FAQ!!!
Торрент  Добавлен [17 май 2014, 07:17] Скачать торрент
Скачать торрент
[ Размер 14.25 КБ / Просмотров 7 ]

Статус  
 
Размер  1.37 ГБ
Приватный: Нет (DHT включён)
.torrent скачан  0
Как залить торрент? | Как скачать Torrent? | Как смотреть и слушать онлайн?  


     Отправить личное сообщение
   
Страница 1 из 1
Показать сообщения за:  Поле сортировки  
Начать новую тему Ответить на тему

   Похожие торренты   Автор   Ответы   Просмотры   Последнее сообщение 
В этой теме нет новых непрочитанных сообщений. Скачать торрент Проверен Снова 16 / 16 ans ou presque (2013) BDRip 720p | D | Лицензия

в форуме 720p | 1080p, Размер: 4.6 ГБ, Здоровье: 100%

Anonymous

0
38|1

21
598

17 июн 2014, 01:17

Anonymous Перейти к последнему сообщению

В этой теме нет новых непрочитанных сообщений. Скачать торрент Проверен Снова 16 / 16 ans ou presque (2013) BDRip 720p | D | Чистый звук

в форуме 720p | 1080p, Размер: 4.48 ГБ, Здоровье: 0%

Anonymous

0
0|0

15
0

20 май 2014, 09:30

Anonymous Перейти к последнему сообщению

В этой теме нет новых непрочитанных сообщений. Скачать торрент Проверен Tristan Manco / Тристан Манко - Street Sketchbook [2007, PDF, ENG]

в форуме Рисунок, графический дизайн, Размер: 255.82 МБ, Здоровье: 100%

Гость

0
10|2

34
3

27 янв 2016, 22:30

Гость Перейти к последнему сообщению

В этой теме нет новых непрочитанных сообщений. Скачать торрент Почти спокойный мир / Un monde presque paisible (Мишель Девиль / Michel Deville) [2002, Франция, драма, мелодрама, комедия, DVDRip] Sub Rus + Original Fre

в форуме Драмы, Мелодрамы, Размер: 695.68 МБ, Здоровье: 100%

Anonymous

0
14|3

46
3

29 апр 2014, 13:54

Anonymous Перейти к последнему сообщению

В этой теме нет новых непрочитанных сообщений. Скачать торрент Итальянец / L'Italien (Оливье Барру / Olivier Baroux) [2010, Франция, Драма, комедия, HDRip] VO (М. Чадов)

в форуме Драмы, Мелодрамы, Размер: 1.47 ГБ, Здоровье: 0%

Anonymous

0
0|0

36
0

04 фев 2014, 21:26

Anonymous Перейти к последнему сообщению



Сейчас этот форум просматривают: нет зарегистрированных пользователей и гости: 1


Вы не можете начинать темы
Вы не можете отвечать на сообщения
Вы не можете редактировать свои сообщения
Вы не можете удалять свои сообщения
Вы не можете добавлять вложения

Перейти:  

!ВНИМАНИЕ!
 Ресурс не предоставляет электронные версии произведений, а занимается лишь коллекционированием и каталогизацией ссылок, присылаемых и публикуемых на форуме нашими читателями. Если вы являетесь правообладателем какого-либо представленного материала и не желаете чтобы ссылка на него находилась в нашем каталоге, свяжитесь с нами и мы незамедлительно удалим её. Файлы для обмена на трекере предоставлены пользователями сайта, и администрация не несёт ответственности за их содержание. Просьба не заливать файлы, защищенные авторскими правами, а также файлы нелегального содержания!