На всех торрентах на трекере установлена скидка на скачивание в размере 100 процентов(а).
 Возможность скачивания торрента НЕ зависит от ограничений при низком ратио, низком аплоаде, требуемом ратио или требуемом аплоаде.


Начать новую тему Ответить на тему
Статистика раздачи
Размер: 1.38 ГБ | Добавлен: 17 май 2014, 07:07 | Скачали: 0
Сидеров: 0  [0 байт/сек]    Личеров: 0  [0 байт/сек]
Пред. тема | След. тема 

Автор
Сообщение

СообщениеДобавлено: 17 май 2014, 07:07 

Под маской жиголо / Fading Gigolo
«Ради друга, готов на все»

    Страна: США
    Жанр: комедия
    Год выпуска: 2013
    Продолжительность: 01:21:47
    Перевод: Профессиональный (дублированный) (Line)
    Cубтитры: нет
    Режиссер: Джон Туртурро / John Turturro
  • В ролях: Джон Туртурро, Вуди Аллен, Шэрон Стоун, Ванесса Паради, Лив Шрайбер, София Вергара, Тоня Пинкинс, Джейд Диксон, Обри Джозеф, Данте Хоагленд, Айзиа Клифтон, Майкл Бадалукко.
  • Герой Вуди предлагает своему небогатому другу услуги сутенера в оригинальном бизнесе - любовных играх с состоятельными женщинами. И, казалось бы, все пошло как по маслу, но после череды комичных ляпов и позорных провалов, становится очевидно, что парни плывут против течения денег и любви...
    Доп. информация: |КиноПоиск|IMDB|Сэмпл|
    Качество видео: WEBRip
    Формат видео: AVI
    Видео кодек: XviD
    Аудио кодек: MP3
    Видео: XviD, 720x400 (16:9), 2205 kbps, 25 fps, 0,306 bpp
    Аудио: MP3, 2.0, 44 kHz, 192 kbps
MediaInfo
General
Название : D:\Торенты\P0d.Maskoy.Jigalo.2013.D.WEBRip.1400.avi
Формат : AVI
Формат/Info : Audio Video Interleave
Размер файла : 1.38 GiB
Длительность : 1h 21mn
Общий Битрейт : 2 408 Kbps
Создано приложением : VirtualDubMod 1.5.10.3 | www.virtualdub-fr.org || (build 2550/release)
Writing library : VirtualDubMod build 2550/release

Video
ID : 0
Формат : MPEG-4 Visual
Формат profile : Advanced Simple@L5
Формат настройки, BVOP : 2
Формат настройки, QPel : No
Формат настройки, GMC : No warppoints
Формат настройки, Matrix : Default (H.263)
Кодек ID : XVID
Кодек ID/Hint : XviD
Длительность : 1h 21mn
Битрейт : 2 206 Kbps
Width : 720 пикселей
Высота : 400 пикселей
Соотношение кадра : 16:9
Частота кадров : 25.000 fps
Цветопередача : YUV
Chroma subsampling : 4:2:0
Разрядность : 8 bits
Тип сканирования : Progressive
Режим сжатия : Lossy
Bits/(Pixel*Frame) : 0.306
Размер потока : 1.26 GiB (92%)
Writing library : XviD 1.2.1 (UTC 2008-12-04)

Audio
ID : 1
Формат : MPEG Audio
Формат version : Version 1
Формат profile : Layer 3
Кодек ID : 55
Кодек ID/Hint : MP3
Длительность : 1h 21mn
Битрейт mode : Constant
Битрейт : 192 Kbps
Каналы(s) : 2 канала
Частота : 44.1 KHz
Режим сжатия : Lossy
Размер потока : 112 MiB (8%)
Выравнивание : Split accross interleaves
Interleave, Длительность : 40 ms (1.00 video frame)
Interleave, preload Длительность : 500 ms
Writing library : LAME3.99r
Encoding настройки : -m s -V 4 -q 2 -lowpass 18.6 -b 192
Скриншот c названием фильма
Скриншоты
загрузка...
Правила, инструкции, FAQ!!!
Торрент  Добавлен [17 май 2014, 07:07] Скачать торрент
Скачать торрент
[ Размер 14.37 КБ / Просмотров 10 ]

Статус  
 
Размер  1.38 ГБ
Приватный: Нет (DHT включён)
.torrent скачан  0
Как залить торрент? | Как скачать Torrent? | Как смотреть и слушать онлайн?  


     Отправить личное сообщение
   
Страница 1 из 1
Показать сообщения за:  Поле сортировки  
Начать новую тему Ответить на тему

   Похожие торренты   Автор   Ответы   Просмотры   Последнее сообщение 
В этой теме нет новых непрочитанных сообщений. Скачать торрент Проверен Под маской жиголо / Fading Gigolo (2013) WEB-DL 720p | iTunes

в форуме 720p | 1080p, Размер: 2.59 ГБ, Здоровье: 100%

Anonymous

0
115|2

20
2656

21 июл 2014, 07:47

Anonymous Перейти к последнему сообщению

В этой теме нет новых непрочитанных сообщений. Скачать торрент Проверен [iPad] Хоть раз в жизни / Begin again (Джон Карни / John Carney ) [2013, США, Драма, мелодрама, комедия, музыка, HDRip, SD (576p)] DUB + Original + sub (eng)

в форуме Фильмы для iPod, iPhone, iPad, Размер: 1.81 ГБ, Здоровье: 0%

Гость

0
0|0

38
0

11 май 2015, 01:36

Гость Перейти к последнему сообщению

В этой теме нет новых непрочитанных сообщений. Скачать торрент Проверен Конь-огонь в 3Д / Get a Horse! 3D (Лорен МакМаллен, Джон Лассетер / Lauren MacMullan, John Lasseter) [2013, Мультфильм, короткометражка, комедия, BDremux, 1080p] BD3D

в форуме 3D Мультфильмы, Размер: 1.65 ГБ, Здоровье: 0%

Anonymous

0
0|0

6
0

07 сен 2016, 17:43

Anonymous Перейти к последнему сообщению

В этой теме нет новых непрочитанных сообщений. Скачать торрент Люблю тебя, чувак / I Love You, Man (Джон Гамбург / John Hamburg) [2009, США, мелодрама, комедия, BDRip] DUB

в форуме Драмы, Мелодрамы, Размер: 2.18 ГБ, Здоровье: 100%

Anonymous

0
35|11

24
0

14 апр 2014, 09:25

Anonymous Перейти к последнему сообщению

В этой теме нет новых непрочитанных сообщений. Скачать торрент Дом большой мамочки 2 / Big Momma's House 2 (Джон Уайтселл / John Whitesell) [2006 г., боевик, триллер, комедия, BDRip]

в форуме Боевики, Размер: 1.72 ГБ, Здоровье: 100%

Anonymous

0
17|5

65
1

20 фев 2014, 14:03

Anonymous Перейти к последнему сообщению



Сейчас этот форум просматривают: нет зарегистрированных пользователей и гости: 1


Вы не можете начинать темы
Вы не можете отвечать на сообщения
Вы не можете редактировать свои сообщения
Вы не можете удалять свои сообщения
Вы не можете добавлять вложения

Перейти:  

!ВНИМАНИЕ!
 Ресурс не предоставляет электронные версии произведений, а занимается лишь коллекционированием и каталогизацией ссылок, присылаемых и публикуемых на форуме нашими читателями. Если вы являетесь правообладателем какого-либо представленного материала и не желаете чтобы ссылка на него находилась в нашем каталоге, свяжитесь с нами и мы незамедлительно удалим её. Файлы для обмена на трекере предоставлены пользователями сайта, и администрация не несёт ответственности за их содержание. Просьба не заливать файлы, защищенные авторскими правами, а также файлы нелегального содержания!