На всех торрентах на трекере установлена скидка на скачивание в размере 100 процентов(а).
 Возможность скачивания торрента НЕ зависит от ограничений при низком ратио, низком аплоаде, требуемом ратио или требуемом аплоаде.


Начать новую тему Ответить на тему
Статистика раздачи
Размер: 1.46 ГБ | Добавлен: 29 апр 2014, 13:56 | Скачали: 0
Сидеров: 0  [0 байт/сек]    Личеров: 0  [0 байт/сек]
Пред. тема | След. тема 

Автор
Сообщение

СообщениеДобавлено: 29 апр 2014, 13:56 

Переполох в общаге / Dorm Daze


Страна: США
Жанр: комедия
Год выпуска: 2003
Продолжительность: 01:32:27

Перевод 1: Профессиональный (дублированный)
Перевод 2: Авторский (одноголосый закадровый) Сергей Визгунов
Cубтитры: русские, английские
Оригинальная аудиодорожка: английский

Режиссер: Дэвид Хилленбрэнд, Скотт Хилленбрэнд / David Hillenbrand, Scott Hillenbrand

В ролях: Татьяна Али, Боти Блисс, Гэйбл Карр, Патрик Каванаф, Джеймс ДеБелло, Мэрие Дельфино, Тони Денман, Даниэлль Фишель, Кортни Гэйнс, Грегори Хинтон, Эдвин Ходж, Кэти Ломэнн, Дженнифер Лайонс

Описание: Все смешалось в общежитии университета Билинглсей! До Рождества — три дня, студенты охвачены предпраздничной лихорадкой. Они безумствуют на вечеринках, предаются бурному веселью и падают жертвами стрел шаловливого Купидона.

Кипят страсти, бушуют гормоны, играет кровь! А между тем неминуемо надвигаются экзамены, строгие профессора не дадут спуску прогульщикам и лентяям. Но Макмартин Холл и думать забыл о книгах, он твердо решил, что его умник-братец должен непременно расстаться с невинностью до наступления Нового Года.

Для реализации коварного замысла он оплатил услуги профессионалки экстра-класса, знойной красотки Доминик. Она приникает в общежитие, но идеальный план неожиданно дает сбой: в это же время в университет по программе обмена студентами прибывает очаровательная француженка, почти не говорящая по-английски. Ее имя тоже Доминик…

Сэмпл: http://multi-up.com/851810

Качество видео: DVDRip-AVC
Формат видео: MKV

Видео: 716x556 (16:9) @ 1022x556, 25.000 fps, AVC, ~1620 Kbps, 0.163 bits/pixel
Аудио 1: Russian, 48.0 KHz, AC3, 6 ch, 224 Kbps - Dub
Аудио 2: Russian, 48.0 KHz, AC3, 2 ch, 192 Kbps - Сергей Визгунов
Аудио 3: English, 48.0 KHz, AC3, 6 ch, 224 Kbps
Формат субтитров: softsub (SRT)



Log
x264.exe: --pass 2 --bitrate 1620 --preset medium --level 4.1 --ref 9 --deblock -1:-1 --merange 32 --direct auto --b-adapt 2 --trellis 2 --no-fast-pskip --psy-rd 1.00:0.10 --partitions all --subme 9 --me umh --rc-lookahead 50 --stats "C:\Users\1\Desktop\Perepoloh_v_obschage_T04.log" --sar 167:117 --output "C:\Users\1\Desktop\Perepoloh_v_obschage_T04.mp4" "D:\Temp\0014.avs"

avs [info]: 716x556p 167:117 @ 25/1 fps (cfr)
x264 [info]: using SAR=167/117
x264 [info]: using cpu capabilities: MMX2 SSE2Fast SSEMisalign LZCNT
x264 [info]: profile High, level 4.1

x264 [info]: frame I:1705 Avg QP:16.22 size: 44637
x264 [info]: frame P:39756 Avg QP:18.77 size: 15972
x264 [info]: frame B:97220 Avg QP:21.43 size: 4240
x264 [info]: consecutive B-frames: 2.3% 5.1% 22.4% 70.1%
x264 [info]: mb I I16..4: 6.7% 79.4% 13.9%
x264 [info]: mb P I16..4: 1.8% 9.9% 1.3% P16..4: 47.7% 18.7% 14.8% 0.4% 0.1% skip: 5.4%
x264 [info]: mb B I16..4: 0.1% 0.9% 0.1% B16..8: 40.1% 8.4% 1.8% direct: 5.8% skip:42.6% L0:39.3% L1:47.0% BI:13.7%
x264 [info]: 8x8 transform intra:77.2% inter:64.5%
x264 [info]: direct mvs spatial:97.8% temporal:2.2%
x264 [info]: coded y,uvDC,uvAC intra: 84.6% 78.5% 49.2% inter: 23.5% 24.1% 2.1%
x264 [info]: i16 v,h,dc,p: 39% 10% 9% 42%
x264 [info]: i8 v,h,dc,ddl,ddr,vr,hd,vl,hu: 21% 8% 9% 7% 10% 14% 9% 13% 10%
x264 [info]: i4 v,h,dc,ddl,ddr,vr,hd,vl,hu: 24% 7% 4% 7% 12% 17% 9% 12% 8%
x264 [info]: i8c dc,h,v,p: 35% 21% 30% 14%
x264 [info]: Weighted P-Frames: Y:2.3% UV:0.8%
x264 [info]: ref P L0: 46.2% 11.8% 20.7% 5.1% 5.1% 3.2% 3.5% 1.8% 2.1% 0.5% 0.0%
x264 [info]: ref B L0: 80.7% 11.3% 3.3% 1.7% 1.2% 1.0% 0.6% 0.3%
x264 [info]: ref B L1: 94.5% 5.5%
x264 [info]: kb/s:1619.95


MediaInfo
General
Unique ID : 177670998562509790155294478151169045357 (0x85AA308C1EE4F29CB696C954C2D7736D)
Complete name : D:\Dorm Daze.mkv
Format : Matroska
Format version : Version 4 / Version 2
File size : 1.46 GiB
Duration : 1h 32mn
Overall bit rate : 2 263 Kbps
Encoded date : UTC 2013-04-07 13:07:59
Writing application : mkvmerge v6.1.0 ('Old Devil') built on Mar 2 2013 14:32:37
Writing library : libebml v1.3.0 + libmatroska v1.4.0

Video
ID : 1
Format : AVC
Format/Info : Advanced Video Codec
Format profile : High@L4.1
Format settings, CABAC : Yes
Format settings, ReFrames : 9 frames
Codec ID : V_MPEG4/ISO/AVC
Duration : 1h 32mn
Bit rate : 1 620 Kbps
Width : 716 pixels
Height : 556 pixels
Display aspect ratio : 1.85:1
Frame rate mode : Constant
Frame rate : 25.000 fps
Color space : YUV
Chroma subsampling : 4:2:0
Bit depth : 8 bits
Scan type : Progressive
Bits/(Pixel*Frame) : 0.163
Stream size : 1.02 GiB (70%)
Writing library : x264 core 130 r2273 b3065e6
Encoding settings : cabac=1 / ref=9 / deblock=1:-1:-1 / analyse=0x3:0x133 / me=umh / subme=9 / psy=1 / psy_rd=1.00:0.10 / mixed_ref=1 / me_range=32 / chroma_me=1 / trellis=2 / 8x8dct=1 / cqm=0 / deadzone=21,11 / fast_pskip=0 / chroma_qp_offset=-3 / threads=6 / lookahead_threads=1 / sliced_threads=0 / nr=0 / decimate=1 / interlaced=0 / bluray_compat=0 / constrained_intra=0 / bframes=3 / b_pyramid=2 / b_adapt=2 / b_bias=0 / direct=3 / weightb=1 / open_gop=0 / weightp=2 / keyint=250 / keyint_min=25 / scenecut=40 / intra_refresh=0 / rc_lookahead=50 / rc=2pass / mbtree=1 / bitrate=1620 / ratetol=1.0 / qcomp=0.60 / qpmin=0 / qpmax=69 / qpstep=4 / cplxblur=20.0 / qblur=0.5 / ip_ratio=1.40 / aq=1:1.00
Default : Yes
Forced : No

Audio #1
ID : 2
Format : AC-3
Format/Info : Audio Coding 3
Mode extension : CM (complete main)
Format settings, Endianness : Big
Codec ID : A_AC3
Duration : 1h 32mn
Bit rate mode : Constant
Bit rate : 224 Kbps
Channel(s) : 6 channels
Channel positions : Front: L C R, Side: L R, LFE
Sampling rate : 48.0 KHz
Bit depth : 16 bits
Compression mode : Lossy
Stream size : 148 MiB (10%)
Title : Dub
Language : Russian
Default : Yes
Forced : No

Audio #2
ID : 3
Format : AC-3
Format/Info : Audio Coding 3
Mode extension : CM (complete main)
Format settings, Endianness : Big
Codec ID : A_AC3
Duration : 1h 32mn
Bit rate mode : Constant
Bit rate : 192 Kbps
Channel(s) : 2 channels
Channel positions : Front: L R
Sampling rate : 48.0 KHz
Bit depth : 16 bits
Compression mode : Lossy
Stream size : 127 MiB (8%)
Title : Сергей Визгунов
Language : Russian
Default : No
Forced : No

Audio #3
ID : 4
Format : AC-3
Format/Info : Audio Coding 3
Mode extension : CM (complete main)
Format settings, Endianness : Big
Codec ID : A_AC3
Duration : 1h 32mn
Bit rate mode : Constant
Bit rate : 224 Kbps
Channel(s) : 6 channels
Channel positions : Front: L C R, Side: L R, LFE
Sampling rate : 48.0 KHz
Bit depth : 16 bits
Compression mode : Lossy
Stream size : 148 MiB (10%)
Language : English
Default : No
Forced : No

Text #1
ID : 5
Format : UTF-8
Codec ID : S_TEXT/UTF8
Codec ID/Info : UTF-8 Plain Text
Language : Russian
Default : Yes
Forced : No

Text #2
ID : 6
Format : UTF-8
Codec ID : S_TEXT/UTF8
Codec ID/Info : UTF-8 Plain Text
Language : English
Default : No
Forced : No

Menu
00:00:00.000 : :Chapter 01
00:07:46.400 : :Chapter 02
00:13:10.920 : :Chapter 03
00:16:19.320 : :Chapter 04
00:23:34.280 : :Chapter 05
00:29:37.760 : :Chapter 06
00:36:43.160 : :Chapter 07
00:44:22.920 : :Chapter 08
00:49:09.640 : :Chapter 09
00:53:12.200 : :Chapter 10
00:58:23.080 : :Chapter 11
01:06:48.880 : :Chapter 12
01:10:34.360 : :Chapter 13
01:15:29.800 : :Chapter 14
01:21:18.320 : :Chapter 15
01:25:17.800 : :Chapter 16


Скриншоты
загрузка...
Правила, инструкции, FAQ!!!
Торрент  Добавлен [29 апр 2014, 13:56] Скачать торрент
Скачать торрент
[ Размер 15.2 КБ / Просмотров 6 ]

Статус  
 
Размер  1.46 ГБ
Приватный: Нет (DHT включён)
.torrent скачан  0
Как залить торрент? | Как скачать Torrent? | Как смотреть и слушать онлайн?  


     Отправить личное сообщение
   
Страница 1 из 1
Показать сообщения за:  Поле сортировки  
Начать новую тему Ответить на тему

   Похожие торренты   Автор   Ответы   Просмотры   Последнее сообщение 
В этой теме нет новых непрочитанных сообщений. Скачать торрент Проверен Переполох в общаге / National Lampoon Presents Dorm Daze (2003) BDRip 1080p | D, P2, A

в форуме 720p | 1080p, Размер: 6.48 ГБ, Здоровье: 100%

Anonymous

0
14|0

22
67

21 май 2014, 06:19

Anonymous Перейти к последнему сообщению

В этой теме нет новых непрочитанных сообщений. Скачать торрент Американский пирог 6: Переполох в общаге / American Pie Presents: Beta House (Эндрю Уоллер / Andrew Uoller) [2007 г., молодёжная комедия, DVDRip] DVO + Original

в форуме Комедии, Размер: 1.46 ГБ, Здоровье: 0%

Anonymous

0
0|0

42
0

06 фев 2014, 11:43

Anonymous Перейти к последнему сообщению

В этой теме нет новых непрочитанных сообщений. Скачать торрент Принцип неопределенности / Uncertainty (Скотт МакГихи / Scott McGehee, Дэвид Сигел / David Siegel) [2009, драма, BDRip-AVC]

в форуме Драмы, Мелодрамы, Размер: 1.46 ГБ, Здоровье: 100%

Anonymous

0
2|1

19
0

01 апр 2014, 09:36

Anonymous Перейти к последнему сообщению

В этой теме нет новых непрочитанных сообщений. Скачать торрент Принцип неопределенности / Нерешительность / Uncertainty (Скотт МакГихи / Scott McGehee, Дэвид Сигел / David Siegel) [2009, США, драма, HDRip] MVO R5

в форуме Драмы, Мелодрамы, Размер: 1.46 ГБ, Здоровье: 0%

Anonymous

0
0|0

17
0

11 фев 2014, 09:17

Anonymous Перейти к последнему сообщению

В этой теме нет новых непрочитанных сообщений. Скачать торрент Проверен [iPod] Хороший год / A Good Year (Ридли Скотт / Ridley Scott) [2006 г., Комедия, мелодрама, драма, DVDRip]

в форуме Фильмы для iPod, iPhone, iPad, Размер: 332.72 МБ, Здоровье: 100%

Anonymous

0
1|0

32
0

14 май 2015, 00:25

Anonymous Перейти к последнему сообщению



Сейчас этот форум просматривают: нет зарегистрированных пользователей и гости: 1


Вы не можете начинать темы
Вы не можете отвечать на сообщения
Вы не можете редактировать свои сообщения
Вы не можете удалять свои сообщения
Вы не можете добавлять вложения

Перейти:  

!ВНИМАНИЕ!
 Ресурс не предоставляет электронные версии произведений, а занимается лишь коллекционированием и каталогизацией ссылок, присылаемых и публикуемых на форуме нашими читателями. Если вы являетесь правообладателем какого-либо представленного материала и не желаете чтобы ссылка на него находилась в нашем каталоге, свяжитесь с нами и мы незамедлительно удалим её. Файлы для обмена на трекере предоставлены пользователями сайта, и администрация не несёт ответственности за их содержание. Просьба не заливать файлы, защищенные авторскими правами, а также файлы нелегального содержания!