На всех торрентах на трекере установлена скидка на скачивание в размере 100 процентов(а).
 Возможность скачивания торрента НЕ зависит от ограничений при низком ратио, низком аплоаде, требуемом ратио или требуемом аплоаде.


Начать новую тему Ответить на тему
Статистика раздачи
Размер: 1.37 ГБ | Добавлен: 29 апр 2014, 13:55 | Скачали: 0
Сидеров: 10  [0 байт/сек]    Личеров: 3  [0 байт/сек]
Пред. тема | След. тема 

Автор
Сообщение

СообщениеДобавлено: 29 апр 2014, 13:55 

Нью-Йоркское такси / Taxi / New York Taxi

Страна: США, Франция
Жанр: Криминальная комедия
Год выпуска: 2004
Продолжительность: 01:29:21

Перевод: Профессиональный (дублированный)
Cубтитры: нет
Оригинальная аудиодорожка: нет

Режиссер: Тим Стори / Tim Story

В ролях: Энн-Маргрет, Дженнифер Эспозито, Жизель Бюндхен, Джимми Фэллон, Куин Лэтифа, Джулиан МакМахон.

Описание: Лихачка Белль Уильямс самый быстрый таксист Нью-Йорка. Но Белль не для того превращала свой "кэб" в ракету, чтобы до конца жизни развозить клиентов. Она мечтает о победе в настоящих соревнованиях гонщиков. И она близка к осуществлению своей мечты, пока на ее пути не встает полицейский Энди Уошберн, талантливый сыщик и совершенно бесталанный водитель. Уошберн, попавший в немилость у начальства за полное фиаско за рулем, преследует банду грабительниц банков под предводительством Ванессы, холодной, расчетливой красавицы. У Уошберна нет водительских прав, и он рассчитывает угнаться за Ванессой и ее сподручными с помощью Белль. Белль получает карт-бланш на любую скорость и езду без правил. Так самая необычная в истории Нью-Йорка парочка полицейских без машины, и одержимая скоростью таксистка начинает игру в кошки-мышки с хитроумными грабителями. И они могут рассчитывать на победу, если только не поубивают друг друга раньше, чем обезвредят преступников.

Доп. информация: Рип с канала Первый HD. Логотип канала полностью удален из видеоряда, остались вставки с названием фильма. Здесь более полная картинка, в отличие от BD и DVD.

Качество видео: HDTVRip
Формат видео: AVI

Видео: MPEG4, XviD, 720x400 (16/9), 25.000 fps, 1 992 Kbps (0.277 bit/pixel)
Аудио: AC-3, 48.0 KHz, 2 ch, 192 Kbps, CBR

MediaInfo
Общее
Полное имя : K:\Нью-Йоркское такси.avi
Формат : AVI
Формат/Информация : Audio Video Interleave
Размер файла : 1,37 Гбайт
Продолжительность : 1 ч. 29 м.
Общий поток : 2194 Кбит/сек
Название фильма : Нью-Йоркское такси / Taxi / New York Taxi (2004)
Режиссёр : miha2154
Программа кодирования : VirtualDubMod 1.5.10.2 (build 2540/release)
Библиотека кодирования : VirtualDubMod build 2540/release
Правообладатель : специально для BitTorrent трекер RuTracker.org (ex torrents.ru)

Видео
Идентификатор : 0
Формат : MPEG-4 Visual
Профиль формата : Advanced Simple@L5
Параметр BVOP формата : 2
Параметр QPel формата : Нет
Параметр GMC формата : Без точки перехода
Параметр матрицы формата : Default (MPEG)
Идентификатор кодека : XVID
Идентификатор кодека/Подсказка : XviD
Продолжительность : 1 ч. 29 м.
Битрейт : 1992 Кбит/сек
Ширина : 720 пикселей
Высота : 400 пикселей
Соотношение сторон : 16:9
Частота кадров : 25,000 кадров/сек
Цветовое пространство : YUV
Субдискретизация насыщенности : 4:2:0
Битовая глубина : 8 бит
Тип развёртки : Прогрессивная
Метод сжатия : С потерями
Бит/(Пиксели*Кадры) : 0.277
Размер потока : 1,24 Гбайт (91%)
Библиотека кодирования : XviD 1.1.0 (UTC 2005-11-22)

Аудио
Идентификатор : 1
Формат : AC-3
Формат/Информация : Audio Coding 3
Расширение режима : CM (complete main)
Параметр Endianness формата : Big
Идентификатор кодека : 2000
Продолжительность : 1 ч. 29 м.
Вид битрейта : Постоянный
Битрейт : 192 Кбит/сек
Каналы : 2 канала
Расположение каналов : Front: L R
Частота : 48,0 КГц
Битовая глубина : 16 бит
Метод сжатия : С потерями
Размер потока : 123 Мбайт (9%)
Выравнивание : Разделение по промежуткам
Продолжительность промежутка : 40 мс. (1,00 видеокадр)
Время предзагрузки промежутка : 500 мс.
Заголовок : Профессиональный (полное дублирование)


Скриншоты


загрузка...
Правила, инструкции, FAQ!!!
Торрент  Добавлен [29 апр 2014, 13:55] Скачать торрент
Скачать торрент
[ Размер 14.18 КБ / Просмотров 8 ]

Статус  
 
Размер  1.37 ГБ
Приватный: Нет (DHT включён)
.torrent скачан  0
Как залить торрент? | Как скачать Torrent? | Как смотреть и слушать онлайн?  


     Отправить личное сообщение
   
Страница 1 из 1
Показать сообщения за:  Поле сортировки  
Начать новую тему Ответить на тему

   Похожие торренты   Автор   Ответы   Просмотры   Последнее сообщение 
В этой теме нет новых непрочитанных сообщений. Скачать торрент Нью-Йоркское такси / Taxi / New York Taxi (Тим Стори / Tim Story) [2004 г., Криминальная комедия, HDRip] Dub

в форуме Комедии, Размер: 1.71 ГБ, Здоровье: 100%

Anonymous

0
5|1

46
0

25 апр 2014, 08:52

Anonymous Перейти к последнему сообщению

В этой теме нет новых непрочитанных сообщений. Скачать торрент Проверен (Pop) [CDS] Vanessa Paradis - Joe Le Taxi - 1988, FLAC (tracks+.cue), lossless

в форуме Зарубежная музыка, Размер: 56.18 МБ, Здоровье: 100%

Anonymous

0
5|1

3
0

16 авг 2016, 23:03

Anonymous Перейти к последнему сообщению

В этой теме нет новых непрочитанных сообщений. Скачать торрент Проверен (Hard Rock | Modern Rock) Taxi Violence - Soul Shake - 2013, MP3, 320 kbps

в форуме Classic Rock & Hard Rock, Размер: 83.31 МБ, Здоровье: 100%

Anonymous

0
3|1

0
0

13 ноя 2016, 11:35

Anonymous Перейти к последнему сообщению

В этой теме нет новых непрочитанных сообщений. Скачать торрент Ограбление по-английски / High Heels And Low Lifes (Мэл Смит / Mel Smith) [2001, Великобритания, США, Криминальная комедия, HDTVRip] MVO

в форуме Комедии, Размер: 1.4 ГБ, Здоровье: 0%

Anonymous

0
0|0

34
0

03 фев 2014, 12:30

Anonymous Перейти к последнему сообщению

В этой теме нет новых непрочитанных сообщений. Скачать торрент Проверен [iPad] Два дня в Нью-Йорке / 2 Days in New York (Жюли Дельпи/ Julie Delpy) [2012, Франция, Германия, Бельгия, Комедия, BDRip, 576p] MVO + Original + eng sub

в форуме Фильмы для iPod, iPhone, iPad, Размер: 1.65 ГБ, Здоровье: 100%

Anonymous

0
8|2

45
0

18 май 2015, 10:49

Anonymous Перейти к последнему сообщению



Сейчас этот форум просматривают: нет зарегистрированных пользователей и гости: 1


Вы не можете начинать темы
Вы не можете отвечать на сообщения
Вы не можете редактировать свои сообщения
Вы не можете удалять свои сообщения
Вы не можете добавлять вложения

Перейти:  

!ВНИМАНИЕ!
 Ресурс не предоставляет электронные версии произведений, а занимается лишь коллекционированием и каталогизацией ссылок, присылаемых и публикуемых на форуме нашими читателями. Если вы являетесь правообладателем какого-либо представленного материала и не желаете чтобы ссылка на него находилась в нашем каталоге, свяжитесь с нами и мы незамедлительно удалим её. Файлы для обмена на трекере предоставлены пользователями сайта, и администрация не несёт ответственности за их содержание. Просьба не заливать файлы, защищенные авторскими правами, а также файлы нелегального содержания!