На всех торрентах на трекере установлена скидка на скачивание в размере 100 процентов(а).
 Возможность скачивания торрента НЕ зависит от ограничений при низком ратио, низком аплоаде, требуемом ратио или требуемом аплоаде.


Начать новую тему Ответить на тему
Статистика раздачи
Размер: 1.37 ГБ | Добавлен: 26 апр 2014, 20:58 | Скачали: 0
Сидеров: 2  [0 байт/сек]    Личеров: 1  [0 байт/сек]
Пред. тема | След. тема 

Автор
Сообщение

СообщениеДобавлено: 26 апр 2014, 20:58 

Просто друзья / Just Friends

Страна: Германия, США, Канада
Жанр: комедия, мелодрама
Год выпуска: 2005
Продолжительность: 01:30:50
Перевод: Профессиональный (дублированный) Мосфильм-Мастер
Субтитры: нет
Режиссер: Роджер Камбл / Roger Kumble
В ролях: Райан Рейнольдс, Эми Смарт, Анна Фэрис, Крис Клейн, Крис Маркетт, Джакомо Белтрами, Фред Эвануик, Эми Матисио, Джули Хэгерти, Венди Андерсон
Описание: Лос-анджелесский музыкальный продюсер Крис Брэндер имеет все, что только можно пожелать, — деньги, приятную внешность и замечательную работу. Однако в жизни Криса не всегда все складывалось так гладко. В школе он был очень полным и от этого чересчур застенчивым.

Единственное светлое воспоминание он сохранил о своей близкой подруге Джейми, в которую он был тайно и безнадежно влюблен. И вот по прошествии десяти лет, став неотразимым сердцеедом и преуспевающим продюсером, по пути в Париж Крис вынужден остановиться в родном для него Нью-Джерси. В местном баре Крис случайно встречает Джейми и понимает, что все еще любит ее.

Однако завоевать сердце любимой девушки оказывается еще труднее, чем 10 лет назад.
Кинопоиск | IMDb | Сэмпл


Качество видео: DVDRip-AVC
Формат видео: MKV

Видео: 704x368 (1.913), 25.000 fps, AVC, ~1704 Kbps, 0.263 bits/pixel
Аудио: 48.0 KHz, AC3, 6 ch, 448 KbpsMediaInfo
Общее
Уникальный идентификатор : 73544146176753737082454357722645078818 (0x3754165BA0909087E6A871611CDF2322)
Полное имя : prosto_druz'ya_dvdrip1400_x264.mkv
Формат : Matroska
Размер файла : 1,37 Гбайт
Продолжительность : 1 ч. 30 м.
Общий поток : 2155 Кбит/сек
Программа кодирования : AVI-Mux GUI 1.17.8, Aug 30 2008 12:36:58
Библиотека кодирования : matroska muxer by Alexander Noe, build date Aug 30 2008

Видео
Идентификатор : 1
Формат : AVC
Формат/Информация : Advanced Video Codec
Профиль формата : High@L5.1
Параметр CABAC формата : Да
Параметр ReFrames формата : 1 кадр
Идентификатор кодека : V_MS/VFW/FOURCC / H264
Продолжительность : 1 ч. 30 м.
Битрейт : 1704 Кбит/сек
Ширина : 704 пикселя
Высота : 368 пикселей
Соотношение сторон : 1,913
Режим частоты кадров : Постоянный
Частота кадров : 25,000 кадров/сек
Цветовое пространство : YUV
Субдискретизация насыщенности : 4:2:0
Битовая глубина : 8 бит
Тип развёртки : Прогрессивная
Бит/(Пиксели*Кадры) : 0.263
Размер потока : 1,06 Гбайт (77%)
Библиотека кодирования : x264 core 60 r913bm 64848ff
Настройки программы : cabac=1 / ref=1 / deblock=1:0:0 / analyse=0x3:0x13 / me=umh / subme=6 / brdo=0 / mixed_ref=0 / me_range=16 / chroma_me=1 / trellis=0 / 8x8dct=1 / cqm=0 / deadzone=21,11 / chroma_qp_offset=0 / threads=1 / nr=0 / decimate=1 / mbaff=0 / bframes=0 / keyint=250 / keyint_min=25 / scenecut=40 / rc=2pass / bitrate=1704 / ratetol=1.0 / rceq='blurCplx^(1-qComp)' / qcomp=1.00 / qpmin=10 / qpmax=51 / qpstep=4 / cplxblur=20.0 / qblur=0.5 / ip_ratio=1.40 / aq=2:1.00
Язык : English
Default : Да
Forced : Нет

Аудио
Идентификатор : 2
Формат : AC-3
Формат/Информация : Audio Coding 3
Расширение режима : CM (complete main)
Параметр Endianness формата : Big
Идентификатор кодека : A_AC3
Продолжительность : 1 ч. 30 м.
Вид битрейта : Постоянный
Битрейт : 448 Кбит/сек
Каналы : 6 каналов
Расположение каналов : Front: L C R, Side: L R, LFE
Частота : 48,0 КГц
Битовая глубина : 16 бит
Метод сжатия : С потерями
Размер потока : 291 Мбайт (21%)
Заголовок : VTS_03_1 T01 3_2ch 448Kbps DELAY 0ms
Язык : English
Default : Нет
Forced : Нет
Скриншоты
загрузка...
Правила, инструкции, FAQ!!!
Торрент  Добавлен [26 апр 2014, 20:58] Скачать торрент
Скачать торрент
[ Размер 14.18 КБ / Просмотров 5 ]

Статус  
 
Размер  1.37 ГБ
Приватный: Нет (DHT включён)
.torrent скачан  0
Как залить торрент? | Как скачать Torrent? | Как смотреть и слушать онлайн?  


     Отправить личное сообщение
   
Страница 1 из 1
Показать сообщения за:  Поле сортировки  
Начать новую тему Ответить на тему

   Похожие торренты   Автор   Ответы   Просмотры   Последнее сообщение 
В этой теме нет новых непрочитанных сообщений. Скачать торрент Просто друзья / Just Friends (Роджер Камбл / Roger Kumble) [2005 г., Комедия, мелодрама, HDRip-AVC] dub

в форуме Комедии, Размер: 1.48 ГБ, Здоровье: 0%

Anonymous

0
0|0

31
0

26 апр 2014, 20:58

Anonymous Перейти к последнему сообщению

В этой теме нет новых непрочитанных сообщений. Скачать торрент Венера / Venus (Roger Michell | Роджер Мичелл) [2006 г., Комедия, Мелодрама, Драма, DVDRip] VO + ENG

в форуме Комедии, Размер: 962.13 МБ, Здоровье: 0%

Anonymous

0
0|0

33
0

04 фев 2014, 21:24

Anonymous Перейти к последнему сообщению

В этой теме нет новых непрочитанных сообщений. Скачать торрент Доброе утро / Morning Glory (Роджер Мишелл / Roger Michell) [2010 г., драма, мелодрама, комедия, BDRip-AVC] Dub

в форуме Драмы, Мелодрамы, Размер: 1.46 ГБ, Здоровье: 0%

Anonymous

0
0|0

26
0

02 апр 2014, 12:04

Anonymous Перейти к последнему сообщению

В этой теме нет новых непрочитанных сообщений. Скачать торрент Доброе утро / Morning Glory (Роджер Мичелл / Roger Michell) [2010, США, драма, мелодрама, комедия, HDRip] Dub

в форуме Драмы, Мелодрамы, Размер: 1.45 ГБ, Здоровье: 0%

Anonymous

0
0|0

28
0

11 фев 2014, 09:18

Anonymous Перейти к последнему сообщению

В этой теме нет новых непрочитанных сообщений. Скачать торрент Доброе утро / Morning Glory (Роджер Мичелл / Roger Michell) [2010, драма, мелодрама, комедия, BDRip] Dub + Original + Subs (Rus, RusF, Eng)

в форуме Драмы, Мелодрамы, Размер: 2.19 ГБ, Здоровье: 0%

Anonymous

0
0|0

38
0

14 фев 2014, 07:45

Anonymous Перейти к последнему сообщению



Сейчас этот форум просматривают: нет зарегистрированных пользователей и гости: 1


Вы не можете начинать темы
Вы не можете отвечать на сообщения
Вы не можете редактировать свои сообщения
Вы не можете удалять свои сообщения
Вы не можете добавлять вложения

Перейти:  

!ВНИМАНИЕ!
 Ресурс не предоставляет электронные версии произведений, а занимается лишь коллекционированием и каталогизацией ссылок, присылаемых и публикуемых на форуме нашими читателями. Если вы являетесь правообладателем какого-либо представленного материала и не желаете чтобы ссылка на него находилась в нашем каталоге, свяжитесь с нами и мы незамедлительно удалим её. Файлы для обмена на трекере предоставлены пользователями сайта, и администрация не несёт ответственности за их содержание. Просьба не заливать файлы, защищенные авторскими правами, а также файлы нелегального содержания!