На всех торрентах на трекере установлена скидка на скачивание в размере 100 процентов(а).
 Возможность скачивания торрента НЕ зависит от ограничений при низком ратио, низком аплоаде, требуемом ратио или требуемом аплоаде.


Начать новую тему Ответить на тему
Статистика раздачи
Размер: 744.96 МБ | Добавлен: 26 апр 2014, 20:57 | Скачали: 2
Сидеров: 3  [0 байт/сек]    Личеров: 0  [0 байт/сек]
Пред. тема | След. тема 

Автор
Сообщение

СообщениеДобавлено: 26 апр 2014, 20:57 

Украсть полицейского / Холостой выстрел / Nos Amis les Flics

Год выпуска: 2004
Страна: Франция
Жанр: комедия
Продолжительность: 01:25:10.080 (127752 frames)
Перевод: Профессиональный (многоголосый, закадровый)
Русские субтитры: нет

Режиссер: Боб Свейм / Bob Swaim

В ролях: Фредерик Дифенталь /Frеdеric Diefenthal/, Армель Дойч /Armelle Deutsch/, Даниэль Отей /Daniel Auteuil/, Лоран Дойч /Lorаnt Deutsch/, Атмен Келиф /Atmen Kelif/, Франсуа Леванталь /Franзois Levantal/

Описание: Фрэдо, Туссэну и их подельникам частенько удается ввязываться в невероятные аферы и схемы, которые обречены на провал. На этот раз они решаются на ограбление музея и, конечно, всё идет не по плану. Один из них оказывается за стальными дверями галереи, другой попадает в полицию. Чтобы не привлекать внимание соседних полицейских участков, незадачливые воры решают выдать себя за полицейских. Какой гениальный ход! С него и начинаются настоящие неприятности... Остросюжетная гангстерская комедия в лучших традициях "Такси" и хита "Неудержимые", восхитила многих международных критиков, назвавших эту картину лучшей гангстерской комедией сезона.

Качество: DVDRip
Формат: AVI
Видео кодек: XviD
Аудио кодек: MP3
Видео: 640x336 (1.90:1), 25 fps, XviD Final 1.0.3 (build 37) ~1085 kbps avg, 0.20 bit/pixel
Аудио: 48 kHz, MPEG Layer 3, 2 ch, ~128.00 kbps avg

Скриншоты


Медиаинфо
General
Format : AVI
Format/Info : Audio Video Interleave
File size : 745 MiB
Duration : 1h 25mn
Overall bit rate : 1 223 Kbps
Director : bm11
Writing application : VirtualDubMod 1.5.10.2 (build 2540/release)
Video
Format : MPEG-4 Visual
Format profile : Simple@L3
Format settings, BVOP : Yes
Format settings, QPel : No
Format settings, GMC : No warppoints
Format settings, Matrix : Default
Muxing mode : Packed bitstream
Codec ID : XVID
Codec ID/Hint : XviD
Duration : 1h 25mn
Bit rate : 1 085 Kbps
Width : 640 pixels
Height : 336 pixels
Display aspect ratio : 1.905
Frame rate : 25.000 fps
Resolution : 24 bits
Colorimetry : 4:2:0
Scan type : Progressive
Bits/(Pixel*Frame) : 0.202
Stream size : 661 MiB (89%)
Writing library : XviD 1.0.3 (UTC 2004-12-20)
Audio
Format : MPEG Audio
Format version : Version 1
Format profile : Layer 3
Codec ID : 55
Codec ID/Hint : MP3
Duration : 1h 25mn
Bit rate mode : Constant
Bit rate : 128 Kbps
Channel(s) : 2 channels
Sampling rate : 48.0 KHz
Resolution : 16 bits
Stream size : 78.0 MiB (10%)
Alignment : Aligned on interleaves
Interleave, duration : 40 ms (1.00 video frame)
Interleave, preload duration : 504 ms
загрузка...
Правила, инструкции, FAQ!!!
Торрент  Добавлен [26 апр 2014, 20:57] Скачать торрент
Скачать торрент
[ Размер 15.05 КБ / Просмотров 8 ]

Статус  
 
Размер  744.96 МБ
Приватный: Нет (DHT включён)
.torrent скачан  2
Как залить торрент? | Как скачать Torrent? | Как смотреть и слушать онлайн?  


     Отправить личное сообщение
   
Страница 1 из 1
Показать сообщения за:  Поле сортировки  
Начать новую тему Ответить на тему

   Похожие торренты   Автор   Ответы   Просмотры   Последнее сообщение 
В этой теме нет новых непрочитанных сообщений. Скачать торрент Веселые и загорелые / Les bronzés 3: amis pour la vie (Патрис Леконт / Patrice Leconte) [2006, Франция, комедия, HDTVRip] MVO

в форуме Комедии, Размер: 1.46 ГБ, Здоровье: 100%

Anonymous

0
26|10

71
0

14 фев 2014, 07:43

Anonymous Перейти к последнему сообщению

В этой теме нет новых непрочитанных сообщений. Скачать торрент Проверен [iPhone] Как украсть небоскреб / Tower Heist (Бретт Рэтнер / Bratt Ratner) [2011, комедия, криминал, BDRip, 720x320] Rus + Eng + Eng Subs

в форуме Фильмы для iPod, iPhone, iPad, Размер: 1.07 ГБ, Здоровье: 100%

Гость

0
5|2

35
0

18 май 2015, 10:37

Гость Перейти к последнему сообщению

В этой теме нет новых непрочитанных сообщений. Скачать торрент Проверен [iPad] Как украсть небоскреб / Tower Heist (Бретт Рэтнер / Brett Ratner ) [2011, США, Боевик, комедия, криминал, BDRip, SD (576p)] DUB + Original + sub (rus, eng)

в форуме Фильмы для iPod, iPhone, iPad, Размер: 1.8 ГБ, Здоровье: 100%

Гость

0
20|7

28
0

11 май 2015, 01:39

Гость Перейти к последнему сообщению

В этой теме нет новых непрочитанных сообщений. Скачать торрент Проверен [MP4 640x360] Большой выстрел / The Big Bang (2010) DVDRip [Nokia S^3]

в форуме Видео для смартфонов и КПК, Размер: 801.53 МБ, Здоровье: 100%

Anonymous

0
1|1

26
0

25 окт 2014, 23:13

Anonymous Перейти к последнему сообщению

В этой теме нет новых непрочитанных сообщений. Скачать торрент Проверен Снайперы / Выстрел сквозь сердце/ / Shot Through The Heart (1998) DVDRip-AVC | P2

в форуме Боевики, Размер: 2.18 ГБ, Здоровье: 100%

Anonymous

0
99|33

84
11

24 ноя 2014, 21:09

Anonymous Перейти к последнему сообщению



Сейчас этот форум просматривают: нет зарегистрированных пользователей и гости: 1


Вы не можете начинать темы
Вы не можете отвечать на сообщения
Вы не можете редактировать свои сообщения
Вы не можете удалять свои сообщения
Вы не можете добавлять вложения

Перейти:  

!ВНИМАНИЕ!
 Ресурс не предоставляет электронные версии произведений, а занимается лишь коллекционированием и каталогизацией ссылок, присылаемых и публикуемых на форуме нашими читателями. Если вы являетесь правообладателем какого-либо представленного материала и не желаете чтобы ссылка на него находилась в нашем каталоге, свяжитесь с нами и мы незамедлительно удалим её. Файлы для обмена на трекере предоставлены пользователями сайта, и администрация не несёт ответственности за их содержание. Просьба не заливать файлы, защищенные авторскими правами, а также файлы нелегального содержания!