На всех торрентах на трекере установлена скидка на скачивание в размере 100 процентов(а).
 Возможность скачивания торрента НЕ зависит от ограничений при низком ратио, низком аплоаде, требуемом ратио или требуемом аплоаде.


Начать новую тему Ответить на тему
Статистика раздачи
Размер: 2.21 ГБ | Добавлен: 26 апр 2014, 20:56 | Скачали: 0
Сидеров: 5  [0 байт/сек]    Личеров: 1  [0 байт/сек]
Пред. тема | След. тема 

Автор
Сообщение

СообщениеДобавлено: 26 апр 2014, 20:56 

40 дней и 40 ночей / 40 Days and 40 Nights
Страна: США, Франция, Великобритания
Жанр: Комедия, мелодрама, драма
Год выпуска: 2002
Продолжительность: 01:35:23
Перевод: Профессиональный (дублированный)
Перевод: Профессиональный (двухголосый закадровый)
Перевод: Авторский (одноголосый закадровый)Живов
Cубтитры: русские
Оригинальная аудиодорожка: английский

Режиссер: Майкл Леманн / Michael Lehmann
В ролях: Джош Хартнетт, Шаннин Соссамон, Паоло Костанзо, Адам Трези, Эммануэль Вожье, Лорин Хит, Аарон Трэйнор, Гленн Фицджералд, Монит Мазур, Кристин Шателейн, Киган Коннор Трейси, Майкл С. Маронна, Винесса Шоу, Стефани Фон Пфеттен, Стенли Андерсон, Гриффин Данн, Джэррад Пол, Терри Чен, Кай Леннокс, Крис Готье, Бэрри Ньюман, Мэри Гросс, Мэгги Джилленхол, Алан Дрэйвен, Дилан Нил, Мишель Харрисон, Джейсон Лоу, Трейси Кизер, Николь Уайлдер, Натасия Мальте, Сьюзэн Бэйн, Чиара Занни, Тереза Александрия, Джина ДеВеторри, Энджи Руис, Аманда

Описание: Мэтт давно разошелся со своей подружкой Николь, но никак не может ее забыть. Мысли о ней преследуют Мэтта, и даже известие о том, что Николь обручилась и готовится пойти под венец, не приносит успокоения - наоборот, ситуация только ухудшается. И Мэтт, разочаровавшись в девушках и лишившись прежних иллюзий, дает обет: на 40 дней он отказывается от секса и всех сопутствующих радостей. Однако именно в этот - как всегда, самый неподходящий - момент на горизонте появляется девушка его мечты. Нарушать клятву не хочется, к тому же друзья Мэтта растрезвонили по всему Интернету о странном для молодого парня обете воздержания. Более того - с их подачи запущен сайт-тотализатор, на котором принимают ставки на дату, когда Мэтт "сломается"...

Доп. информация:
IMDB 5.4/10 27,884 votes

СЭМПЛ
Раздача от группы:
Качество видео: HDRip(Исх.BD1080)
Формат видео: AVI
Видео: 720x400 (1.80:1), 23.976 fps, XviD build 50 ~1688 kbps avg, 0.24 bit/pixel
Аудио: 48 kHz, AC3 Dolby Digital, 3/2 (L,C,R,l,r) + LFE ch, ~384 kbps /Дубляж/
Аудио 2: 48 kHz, AC3 Dolby Digital, 3/2 (L,C,R,l,r) + LFE ch, ~448 kbps /Двухголосый/
Аудио 3: 48 kHz, AC3 Dolby Digital, 3/2 (L,C,R,l,r) + LFE ch, ~384 kbps /Живов/
Аудио 4: 48 kHz, AC3 Dolby Digital, 3/2 (L,C,R,l,r) + LFE ch, ~384 kbps /Английский/
Формат субтитров: softsub (SRT)AviInfo
File: 40.dney.i.40.nochey.chopper887.avi
Filesize: 2248.24 Mb ( 2 357 450 752 bytes )
Play length: 01:35:23.852 (137235 frames)
Subtitles: rus (SubRip format)
Video: 720x400 (1.80:1), 23.976 fps, XviD build 50 ~1688 kbps avg, 0.24 bit/pixel
Audio #1: 48 kHz, AC3 Dolby Digital, 3/2 (L,C,R,l,r) + LFE ch, ~384 kbps
Audio #2: 48 kHz, AC3 Dolby Digital, 3/2 (L,C,R,l,r) + LFE ch, ~448 kbps
Audio #3: 48 kHz, AC3 Dolby Digital, 3/2 (L,C,R,l,r) + LFE ch, ~384 kbps
Audio #4: 48 kHz, AC3 Dolby Digital, 3/2 (L,C,R,l,r) + LFE ch, ~384 kbps
MediaInfo
General
Complete name : J:\40.dney.i.40.nochey.chopper887\40.dney.i.40.nochey.chopper887.avi
Format : AVI
Format/Info : Audio Video Interleave
File size : 2.20 GiB
Duration : 1h 35mn
Overall bit rate : 3 295 Kbps
Writing application : VirtualDubMod 1.5.10.2 (build 2540/release)
Writing library : VirtualDubMod build 2540/release
Video
ID : 0
Format : MPEG-4 Visual
Format profile : AdvancedSimple@L5
Format settings, BVOP : Yes
Format settings, QPel : No
Format settings, GMC : No warppoints
Format settings, Matrix : Custom
Codec ID : XVID
Codec ID/Hint : XviD
Duration : 1h 35mn
Bit rate : 1 690 Kbps
Width : 720 pixels
Height : 400 pixels
Display aspect ratio : 16:9
Frame rate : 23.976 fps
Resolution : 24 bits
Colorimetry : 4:2:0
Scan type : Progressive
Bits/(Pixel*Frame) : 0.245
Stream size : 1.13 GiB (51%)
Writing library : XviD 1.2.1 (UTC 2008-12-04)
Audio #1
ID : 1
Format : AC-3
Format/Info : Audio Coding 3
Codec ID : 2000
Duration : 1h 35mn
Bit rate mode : Constant
Bit rate : 384 Kbps
Channel(s) : 6 channels
Channel positions : Front: L C R, Surround: L R, LFE
Sampling rate : 48.0 KHz
Stream size : 262 MiB (12%)
Alignment : Split accross interleaves
Interleave, duration : 42 ms (1.00 video frame)
Interleave, preload duration : 500 ms
Audio #2
ID : 2
Format : AC-3
Format/Info : Audio Coding 3
Codec ID : 2000
Duration : 1h 35mn
Bit rate mode : Constant
Bit rate : 448 Kbps
Channel(s) : 6 channels
Channel positions : Front: L C R, Surround: L R, LFE
Sampling rate : 48.0 KHz
Stream size : 305 MiB (14%)
Alignment : Split accross interleaves
Interleave, duration : 42 ms (1.00 video frame)
Interleave, preload duration : 500 ms
Audio #3
ID : 3
Format : AC-3
Format/Info : Audio Coding 3
Codec ID : 2000
Duration : 1h 35mn
Bit rate mode : Constant
Bit rate : 384 Kbps
Channel(s) : 6 channels
Channel positions : Front: L C R, Surround: L R, LFE
Sampling rate : 48.0 KHz
Stream size : 262 MiB (12%)
Alignment : Split accross interleaves
Interleave, duration : 42 ms (1.00 video frame)
Interleave, preload duration : 500 ms
Audio #4
ID : 4
Format : AC-3
Format/Info : Audio Coding 3
Codec ID : 2000
Duration : 1h 31mn
Bit rate mode : Constant
Bit rate : 384 Kbps
Channel(s) : 6 channels
Channel positions : Front: L C R, Surround: L R, LFE
Sampling rate : 48.0 KHz
Stream size : 250 MiB (11%)
Alignment : Split accross interleaves
Interleave, duration : 44 ms (1.05 video frame)
Interleave, preload duration : 500 ms
Скриншоты
загрузка...
Правила, инструкции, FAQ!!!
Торрент  Добавлен [26 апр 2014, 20:56] Скачать торрент
Скачать торрент
[ Размер 11.66 КБ / Просмотров 12 ]

Статус  
 
Размер  2.21 ГБ
Приватный: Нет (DHT включён)
.torrent скачан  0
Как залить торрент? | Как скачать Torrent? | Как смотреть и слушать онлайн?  


     Отправить личное сообщение
   
Страница 1 из 1
Показать сообщения за:  Поле сортировки  
Начать новую тему Ответить на тему

   Похожие торренты   Автор   Ответы   Просмотры   Последнее сообщение 
В этой теме нет новых непрочитанных сообщений. Скачать торрент Проверен 40 дней и 40 ночей / 40 Days and 40 Nights (Майкл Леманн / Michael Lehmann) [2002, драма, мелодрама, комедия, BDRip, 480p] DUB, Original + sub (rus, eng)

в форуме Фильмы для iPod, iPhone, iPad, Размер: 1.25 ГБ, Здоровье: 100%

Гость

0
12|4

63
1

11 май 2015, 01:23

Гость Перейти к последнему сообщению

В этой теме нет новых непрочитанных сообщений. Скачать торрент Одна Неделя / One Week (Майкл Макгоун / Michael McGowan) [2008 г., комедия, мелодрама, драма, HDRip]

в форуме Комедии, Размер: 1.19 ГБ, Здоровье: 0%

Anonymous

0
0|0

52
0

12 фев 2014, 11:47

Anonymous Перейти к последнему сообщению

В этой теме нет новых непрочитанных сообщений. Скачать торрент Глухой пролёт / Все из-за Пита Тонга / It's All Gone Pete Tong (Майкл Даус / Michael Dowse) [2004, Канада, Великобритания, комедия, драма, музыка, HDRip]

в форуме Комедии, Размер: 744.74 МБ, Здоровье: 0%

Anonymous

0
0|0

47
0

22 апр 2014, 11:39

Anonymous Перейти к последнему сообщению

В этой теме нет новых непрочитанных сообщений. Скачать торрент Проверен [iPhone] Секс в большом городе 1,2 / Sex and the City 1,2 (Майкл Патрик Кинг / Michael Patrick King) [2008/2010, комедия, мелодрама, драма, HDRip]

в форуме Фильмы для iPod, iPhone, iPad, Размер: 1.61 ГБ, Здоровье: 100%

Anonymous

0
37|12

44
0

12 май 2015, 00:09

Anonymous Перейти к последнему сообщению

В этой теме нет новых непрочитанных сообщений. Скачать торрент Секс в большом городе / Sex and the City (Майкл Патрик Кинг / Michael Patrick King) [2008 г., Комедия, мелодрама, драма, HDRip][Extended Cut] DUB + Original

в форуме Комедии, Размер: 2.91 ГБ, Здоровье: 100%

Anonymous

0
20|7

259
0

12 фев 2014, 11:46

Anonymous Перейти к последнему сообщению



Сейчас этот форум просматривают: нет зарегистрированных пользователей и гости: 1


Вы не можете начинать темы
Вы не можете отвечать на сообщения
Вы не можете редактировать свои сообщения
Вы не можете удалять свои сообщения
Вы не можете добавлять вложения

Перейти:  

!ВНИМАНИЕ!
 Ресурс не предоставляет электронные версии произведений, а занимается лишь коллекционированием и каталогизацией ссылок, присылаемых и публикуемых на форуме нашими читателями. Если вы являетесь правообладателем какого-либо представленного материала и не желаете чтобы ссылка на него находилась в нашем каталоге, свяжитесь с нами и мы незамедлительно удалим её. Файлы для обмена на трекере предоставлены пользователями сайта, и администрация не несёт ответственности за их содержание. Просьба не заливать файлы, защищенные авторскими правами, а также файлы нелегального содержания!