На всех торрентах на трекере установлена скидка на скачивание в размере 100 процентов(а).
 Возможность скачивания торрента НЕ зависит от ограничений при низком ратио, низком аплоаде, требуемом ратио или требуемом аплоаде.


Начать новую тему Ответить на тему
Статистика раздачи
Размер: 2.61 ГБ | Добавлен: 26 апр 2014, 20:56 | Скачали: 0
Сидеров: 16  [0 байт/сек]    Личеров: 6  [0 байт/сек]
Пред. тема | След. тема 

Автор
Сообщение

СообщениеДобавлено: 26 апр 2014, 20:56 

Дневник Бриджет Джонс / Bridget Jones's Diary

«Образ жизни Бриджет Джонс опасен для Вашего здоровья»
Страна: США, Великобритания, Ирландия, Франция
Жанр: Романтическая комедия
Год выпуска: 2001
Продолжительность: 01:35:59

Перевод 1: Профессиональный (дублированный) ОРТ
Перевод 2: Профессиональный (двухголосый закадровый) Украинский
Перевод 3: Профессиональный (многоголосый закадровый) неопознанный (правильный перевод) / внешняя
Перевод 4: Профессиональный (многоголосый закадровый) с лицензии Universal Pictures Rus / внешняя
Cубтитры: русские, английские
Оригинальная аудиодорожка: английский

Режиссер: Шэрон Магуайр / Sharon Maguire

В ролях: Рене Зельвегер, Колин Ферт, Хью Грант, Джемма Джонс, Селия Имри, Джеймс Фолкнер, Джим Бродбент, Чармиан Мей, Пол Брук, Фелисити Монтагу

Описание: Героиня этого фильма, Бриджет Джонс, решила, наконец, взять себя в руки и начать новую жизнь! И давно пора! Ей уже за тридцать, но она безвольно потакает своим вредным привычкам и не решается избавиться от лишних килограммов. Но, что самое главное, Бриджет — совсем одна.
Родители пытаются сосватать ее за сына соседей, скромника Марка, а сама Бриджет без ума от своего неотразимого начальника Дэниэла! С первого дня новой жизни мисс Джонс решает вести дневник, в который она будет записывать свои будущие достижения и победы. Но оказалось, что осуществить мечты и найти истинную любовь гораздо сложней, чем это представлялось нашей прелестной героине…

Качество видео: BDRip (Bridget Jones Diary.2001.BD.Remux.1080p.h264.2xRus.Eng.Commentary.mkv)
Формат видео: AVI
В дубляже присутствовала пара вырезанных моментов (то что на первом канале посчитали неприличным). В этих местах или вставлена многоголоска, или оставлен оригинал.
Видео: 720x304 (2.35:1), 24.000 fps, XviD MPEG-4 ~1947 kbps avg, 0.371 bit/pixel
Аудио 1: 48 kHz, AC3 Dolby Digital 6 ch, 448.00 kbps / Дубляж "ОРТ"
Аудио 2: 48 kHz, AC3 Dolby Digital 2 ch, 192.00 kbps / Профессиональный (двухголосый закадровый) - Украинский
Аудио 3: 48 kHz, AC3 Dolby Digital 6 ch, 448.00 kbps / Оригинал (Английский)
Аудио 4: 48 kHz, AC3 Dolby Digital 6 ch, 448.00 kbps / Профессиональный (многоголосый, закадровый) неопознанный (правильный перевод) / внешняя
Аудио 5: 48 kHz, AC3 Dolby Digital 6 ch, 448.00 kbps / Профессиональный (многоголосый, закадровый) с лицензии Universal Pictures Rus / внешняя
Формат субтитров: softsub (SRT)
Доп. информация о субтитрах: внешние
& MediaInfo
Общее
Полное имя : E:\Фильмы М\Bridget.Jones's.Diary.2001.BDRip.3xRus.Ukr.Eng\Bridget Jones's Diary.2001.BDRip.avi
Формат : AVI
Формат/Информация : Audio Video Interleave
Профиль формата : OpenDML
Размер файла : 2,05 Гбайт
Продолжительность : 1 ч. 35 м.
Общий поток : 3060 Кбит/сек
Название фильма : Bridget Jones's Diary.2001.BDRip
Режиссёр : rip by maygli
Программа кодирования : VirtualDubModRus 1.5.10.2 (build 2542/release)
Правообладатель : ... (RG Rulya74)

Видео
Идентификатор : 0
Формат : MPEG-4 Visual
Профиль формата : Advanced Simple@L5
Параметр BVOP формата : 1
Параметр QPel формата : Нет
Параметр GMC формата : Без точки перехода
Параметр матрицы формата : Выборочная
Режим смешивания : Сжатый битовый поток
Идентификатор кодека : XVID
Идентификатор кодека/Подсказка : XviD
Продолжительность : 1 ч. 35 м.
Битрейт : 1947 Кбит/сек
Ширина : 720 пикселей
Высота : 304 пикселя
Соотношение сторон : 2,35:1
Частота кадров : 24,000 кадра/сек
Цветовое пространство : YUV
Субдискретизация насыщенности : 4:2:0
Битовая глубина : 8 бит
Тип развёртки : Прогрессивная
Метод сжатия : С потерями
Бит/(Пиксели*Кадры) : 0.371
Размер потока : 1,31 Гбайт (64%)
Библиотека кодирования : XviD 65

Аудио #1
Идентификатор : 1
Формат : AC-3
Формат/Информация : Audio Coding 3
Расширение режима : CM (complete main)
Параметр Endianness формата : Big
Идентификатор кодека : 2000
Продолжительность : 1 ч. 35 м.
Вид битрейта : Постоянный
Битрейт : 448 Кбит/сек
Каналы : 6 каналов
Расположение каналов : Front: L C R, Side: L R, LFE
Частота : 48,0 КГц
Битовая глубина : 16 бит
Метод сжатия : С потерями
Размер потока : 308 Мбайт (15%)
Выравнивание : Разделение по промежуткам
Продолжительность промежутка : 42 мс. (1,00 видеокадр)
Время предзагрузки промежутка : 500 мс.
Заголовок : Дубляж "ОРТ"

Аудио #2
Идентификатор : 2
Формат : AC-3
Формат/Информация : Audio Coding 3
Расширение режима : CM (complete main)
Параметр Endianness формата : Big
Идентификатор кодека : 2000
Продолжительность : 1 ч. 35 м.
Вид битрейта : Постоянный
Битрейт : 192 Кбит/сек
Каналы : 2 канала
Расположение каналов : Front: L R
Частота : 48,0 КГц
Битовая глубина : 16 бит
Метод сжатия : С потерями
Размер потока : 132 Мбайт (6%)
Выравнивание : Разделение по промежуткам
Продолжительность промежутка : 42 мс. (1,00 видеокадр)
Время предзагрузки промежутка : 500 мс.
Заголовок : Профессиональный (двухголосый закадровый) - Украинский

Аудио #3
Идентификатор : 3
Формат : AC-3
Формат/Информация : Audio Coding 3
Расширение режима : CM (complete main)
Параметр Endianness формата : Big
Идентификатор кодека : 2000
Продолжительность : 1 ч. 35 м.
Вид битрейта : Постоянный
Битрейт : 448 Кбит/сек
Каналы : 6 каналов
Расположение каналов : Front: L C R, Side: L R, LFE
Частота : 48,0 КГц
Битовая глубина : 16 бит
Метод сжатия : С потерями
Размер потока : 308 Мбайт (15%)
Выравнивание : Разделение по промежуткам
Продолжительность промежутка : 42 мс. (1,00 видеокадр)
Время предзагрузки промежутка : 500 мс.
Заголовок : Оригинал (Английский)
Скриншоты
загрузка...
Правила, инструкции, FAQ!!!
Торрент  Добавлен [26 апр 2014, 20:56] Скачать торрент
Скачать торрент
[ Размер 13.9 КБ / Просмотров 23 ]

Статус  
 
Размер  2.61 ГБ
Приватный: Нет (DHT включён)
.torrent скачан  0
Как залить торрент? | Как скачать Torrent? | Как смотреть и слушать онлайн?  


     Отправить личное сообщение
   
Страница 1 из 1
Показать сообщения за:  Поле сортировки  
Начать новую тему Ответить на тему

   Похожие торренты   Автор   Ответы   Просмотры   Последнее сообщение 
В этой теме нет новых непрочитанных сообщений. Скачать торрент Проверен [iPad]Дневник Бриджит Джонс / Bridget Jones's Diary (Шэрон Магуайр/Sharon Maguire) [2001, Комедия, мелодрама, драма, BDRip, 1024x432] Dub

в форуме Фильмы для iPod, iPhone, iPad, Размер: 1.67 ГБ, Здоровье: 100%

Anonymous

0
57|19

30
1

12 май 2015, 00:09

Anonymous Перейти к последнему сообщению

В этой теме нет новых непрочитанных сообщений. Скачать торрент Бриджит Джонс: Грани разумного / Дневник Бриджит Джонс 2 / Bridget Jones: The Edge of Reason (Бибан Кидрон / Beeban Kidron) [2004, Германия, США, Франция, комедия, мелодрама DVDRip-AVC] DUB

в форуме Комедии, Размер: 2.18 ГБ, Здоровье: 100%

Anonymous

0
34|11

325
0

22 апр 2014, 11:47

Anonymous Перейти к последнему сообщению

В этой теме нет новых непрочитанных сообщений. Скачать торрент Реальная любовь / Love Actually (Ричард Кёртис / Richard Curtis) [2003, Великобритания, США, Романтическая комедия, Драма, BDRip] AVO (Сербин, Гаврилов) + original eng

в форуме Комедии, Размер: 2.01 ГБ, Здоровье: 0%

Anonymous

0
0|0

88
0

22 апр 2014, 11:50

Anonymous Перейти к последнему сообщению

В этой теме нет новых непрочитанных сообщений. Скачать торрент Проверен [iPad] Враг у ворот / Enemy at the Gates (Жан-Жак Анно / Jean-Jacques Annaud) [2001, Германия, США, Великобритания, Ирландия, драма, военный, BDRip, 720p] (DUB | MVO | AVO | DVO | Original | Sub)

в форуме Фильмы для iPod, iPhone, iPad, Размер: 4.38 ГБ, Здоровье: 100%

Гость

0
17|4

138
1

14 май 2015, 00:18

Гость Перейти к последнему сообщению

В этой теме нет новых непрочитанных сообщений. Скачать торрент Шон мертвецов / Зомби по имени Шон / Shaun of the Dead (Эдгар Райт / Edgar Wright) [2004, Великобритания, Франция, США, комедия, ужасы, BDRip]

в форуме Комедии, Размер: 1.45 ГБ, Здоровье: 0%

Anonymous

0
0|0

40
0

24 апр 2014, 14:07

Anonymous Перейти к последнему сообщению



Сейчас этот форум просматривают: нет зарегистрированных пользователей и гости: 1


Вы не можете начинать темы
Вы не можете отвечать на сообщения
Вы не можете редактировать свои сообщения
Вы не можете удалять свои сообщения
Вы не можете добавлять вложения

Перейти:  

!ВНИМАНИЕ!
 Ресурс не предоставляет электронные версии произведений, а занимается лишь коллекционированием и каталогизацией ссылок, присылаемых и публикуемых на форуме нашими читателями. Если вы являетесь правообладателем какого-либо представленного материала и не желаете чтобы ссылка на него находилась в нашем каталоге, свяжитесь с нами и мы незамедлительно удалим её. Файлы для обмена на трекере предоставлены пользователями сайта, и администрация не несёт ответственности за их содержание. Просьба не заливать файлы, защищенные авторскими правами, а также файлы нелегального содержания!