На всех торрентах на трекере установлена скидка на скачивание в размере 100 процентов(а).
 Возможность скачивания торрента НЕ зависит от ограничений при низком ратио, низком аплоаде, требуемом ратио или требуемом аплоаде.


Начать новую тему Ответить на тему
Статистика раздачи
Размер: 1.71 ГБ | Добавлен: 25 апр 2014, 08:52 | Скачали: 0
Сидеров: 5  [0 байт/сек]    Личеров: 1  [0 байт/сек]
Пред. тема | След. тема 

Автор
Сообщение

СообщениеДобавлено: 25 апр 2014, 08:52 

Нью-Йоркское такси / Taxi / New York Taxi


Год выпуска: 2004
Страна: США, Франция
Жанр: Криминальная комедия
Продолжительность: 01:37:08
Перевод: Профессиональный (полное дублирование)
Субтитры: русские, английские

Режиссер: Тим Стори

В ролях: Энн-Маргрет, Дженнифер Эспозито, Жизель Бюндхен, Джимми Фэллон, Куин Лэтифа, Джулиан МакМахон.

Описание: Лихачка Белль Уильямс самый быстрый таксист Нью-Йорка. Но Белль не для того превращала свой "кэб" в ракету, чтобы до конца жизни развозить клиентов. Она мечтает о победе в настоящих соревнованиях гонщиков. И она близка к осуществлению своей мечты, пока на ее пути не встает полицейский Энди Уошберн, талантливый сыщик и совершенно бесталанный водитель. Уошберн, попавший в немилость у начальства за полное фиаско за рулем, преследует банду грабительниц банков под предводительством Ванессы, холодной, расчетливой красавицы. У Уошберна нет водительских прав, и он рассчитывает угнаться за Ванессой и ее сподручными с помощью Белль. Белль получает карт-бланш на любую скорость и езду без правил. Так самая необычная в истории Нью-Йорка парочка полицейских без машины, и одержимая скоростью таксистка начинает игру в кошки-мышки с хитроумными грабителями. И они могут рассчитывать на победу, если только не поубивают друг друга раньше, чем обезвредят преступников.




[/u]
Римейк французского "Такси".
История матери-одиночки Белль, работающей доставщиком пиццы, которая решает использовать свое умение с бешенной скоростью доставлять заказ в другом ремесле. Она решает стать таксистом. Поскольку гонять незамеченной со скоростью 135 миль в час нельзя, то вскоре ее берет в оборот один незадачливый полицейский, совсем неумеющий ездить на автомобиле. Взамен оставленных прав самой крутой таксистке Нью-Йорка приходится помогать полиции в поимке банды красоток, безнаказанно грабящих банки.


Качество: BDRip(Blu-ray.CEE)
Формат: AVI
Видео: 720x304 (2.37:1), 23.976 fps, XviD build 63 ~1736 kbps avg, 0.33 bit/pixel
Аудио: 48 kHz, AC3 Dolby Digital, 3/2 (L,C,R,l,r) LFE ch, ~384.00 kbps avg RUS
Аудио: 48 kHz, AC3 Dolby Digital, 3/2 (L,C,R,l,r) LFE ch, ~384.00 kbps avg ENG - отдельно

MediaInfo
General
Complete name : E:\Downloads\Nyork taksi.chopper887\Nyork taksi.chopper887.avi
Format : AVI
Format/Info : Audio Video Interleave
File size : 1.45 GiB
Duration : 1h 37mn
Overall bit rate : 2 130 Kbps
Writing application : VirtualDubMod 1.5.10.3 | http://www.virtualdub-fr.org || (build 2550/release)
Writing library : VirtualDubMod build 2550/release

Video
ID : 0
Format : MPEG-4 Visual
Format profile : Advanced Simple@L5
Format settings, BVOP : 2
Format settings, QPel : No
Format settings, GMC : No warppoints
Format settings, Matrix : Custom
Codec ID : XVID
Codec ID/Hint : XviD
Duration : 1h 37mn
Bit rate : 1 737 Kbps
Width : 720 pixels
Height : 304 pixels
Display aspect ratio : 2.35:1
Frame rate : 23.976 fps
Color space : YUV
Chroma subsampling : 4:2:0
Bit depth : 8 bits
Scan type : Progressive
Compression mode : Lossy
Bits/(Pixel*Frame) : 0.331
Stream size : 1.18 GiB (82%)
Writing library : XviD 63

Audio
ID : 1
Format : AC-3
Format/Info : Audio Coding 3
Mode extension : CM (complete main)
Codec ID : 2000
Duration : 1h 37mn
Bit rate mode : Constant
Bit rate : 384 Kbps
Channel(s) : 6 channels
Channel positions : Front: L C R, Side: L R, LFE
Sampling rate : 48.0 KHz
Bit depth : 16 bits
Compression mode : Lossy
Stream size : 267 MiB (18%)
Alignment : Split accross interleaves
Interleave, duration : 42 ms (1.00 video frame)
Interleave, preload duration : 500 ms
Скриншоты
загрузка...
Правила, инструкции, FAQ!!!
Торрент  Добавлен [25 апр 2014, 08:52] Скачать торрент
Скачать торрент
[ Размер 17.76 КБ / Просмотров 6 ]

Статус  
 
Размер  1.71 ГБ
Приватный: Нет (DHT включён)
.torrent скачан  0
Как залить торрент? | Как скачать Torrent? | Как смотреть и слушать онлайн?  


     Отправить личное сообщение
   
Страница 1 из 1
Показать сообщения за:  Поле сортировки  
Начать новую тему Ответить на тему

   Похожие торренты   Автор   Ответы   Просмотры   Последнее сообщение 
В этой теме нет новых непрочитанных сообщений. Скачать торрент Нью-Йоркское такси / Taxi / New York Taxi (Тим Стори / Tim Story) [2004, США, Франция, Криминальная комедия, HDTVRip] Dub

в форуме Комедии, Размер: 1.37 ГБ, Здоровье: 100%

Anonymous

0
10|3

33
0

29 апр 2014, 13:55

Anonymous Перейти к последнему сообщению

В этой теме нет новых непрочитанных сообщений. Скачать торрент Проверен (Pop) [CDS] Vanessa Paradis - Joe Le Taxi - 1988, FLAC (tracks+.cue), lossless

в форуме Зарубежная музыка, Размер: 56.18 МБ, Здоровье: 100%

Anonymous

0
5|1

3
0

16 авг 2016, 23:03

Anonymous Перейти к последнему сообщению

В этой теме нет новых непрочитанных сообщений. Скачать торрент Проверен (Hard Rock | Modern Rock) Taxi Violence - Soul Shake - 2013, MP3, 320 kbps

в форуме Classic Rock & Hard Rock, Размер: 83.31 МБ, Здоровье: 100%

Anonymous

0
3|1

0
0

13 ноя 2016, 11:35

Anonymous Перейти к последнему сообщению

В этой теме нет новых непрочитанных сообщений. Скачать торрент Проверен [iPod] На игле / Trainspotting (Дэнни Бойл / Danny Boyle) [1996 г., Криминальная драма, комедия, HDrip]

в форуме Фильмы для iPod, iPhone, iPad, Размер: 431.85 МБ, Здоровье: 100%

Гость

0
1|0

33
0

11 май 2015, 01:37

Гость Перейти к последнему сообщению

В этой теме нет новых непрочитанных сообщений. Скачать торрент Проверен (Blues Rock) Paul Black - Paul Black and Taxi - 1999, APE (image+.cue), lossless

в форуме Blues (Texas, Chicago, Modern and Others), Размер: 397.73 МБ, Здоровье: 0%

Anonymous

0
0|0

0
0

16 окт 2016, 14:18

Anonymous Перейти к последнему сообщению



Сейчас этот форум просматривают: нет зарегистрированных пользователей и гости: 1


Вы не можете начинать темы
Вы не можете отвечать на сообщения
Вы не можете редактировать свои сообщения
Вы не можете удалять свои сообщения
Вы не можете добавлять вложения

Перейти:  

!ВНИМАНИЕ!
 Ресурс не предоставляет электронные версии произведений, а занимается лишь коллекционированием и каталогизацией ссылок, присылаемых и публикуемых на форуме нашими читателями. Если вы являетесь правообладателем какого-либо представленного материала и не желаете чтобы ссылка на него находилась в нашем каталоге, свяжитесь с нами и мы незамедлительно удалим её. Файлы для обмена на трекере предоставлены пользователями сайта, и администрация не несёт ответственности за их содержание. Просьба не заливать файлы, защищенные авторскими правами, а также файлы нелегального содержания!