На всех торрентах на трекере установлена скидка на скачивание в размере 100 процентов(а).
 Возможность скачивания торрента НЕ зависит от ограничений при низком ратио, низком аплоаде, требуемом ратио или требуемом аплоаде.


Начать новую тему Ответить на тему
Статистика раздачи
Размер: 746.52 МБ | Добавлен: 24 апр 2014, 14:07 | Скачали: 0
Сидеров: 32  [0 байт/сек]    Личеров: 11  [0 байт/сек]
Пред. тема | След. тема 

Автор
Сообщение

СообщениеДобавлено: 24 апр 2014, 14:07 

Блондинка в законе / Legally Blonde

Страна: США
Жанр: комедия
Год выпуска: 2001
Продолжительность: 01:36:00

Перевод: Профессиональный (дублированный)
Cубтитры: нет
Режиссер: Роберт Лукетич / Robert Luketic

В ролях: Риз Уизерспун, Люк Уилсон, Сэльма Блэр, Мэттью Дэвис, Виктор Гарбер, Дженнифер Кулидж, Холланд Тейлор, Эли Лартер, Джессика Коффил, Аланна Юбак

Описание: У Эль Вудс кажется, есть все, что может пожелать современная девушка. Она — красавица, президент университетского женского клуба, носит звание «Мисс Июнь» но главное, она — натуральная блондинка. Ее бойфрэнд — лучший парень университета и единственное о чем она мечтает, это — стать миссис Уорнер Хантингтон III.
Но оказывается, Уорнер считает Эль слишком ветреной девушкой, и вместо долгожданного предложения руки и сердца он открывает Эль свои коварные планы, поступить в Гарвард на юридический факультет и жениться на умной интеллигентной девушке. Проведя пару недель в истерике и съев несколько кг. шоколадных конфет, Эль отправляется в Гарвард возвращать своего ненаглядного.
Своей любовью к эпатажу и розовому белью, она взбудоражила все почтенное население Гарварда, покачнув самые основы древнего университета. То как она это делает и чем это закончится, нужно видеть.


Сэмпл: http://onemove.ru/44168/

Качество видео: HDRip (Исх. BDRip 1080p)
Формат видео: AVI

Видео: 672x288 (2.33:1), 23.976 fps, XviD build 50 ~949 kbps avg, 0.20 bit/pixel
Аудио: 48 kHz, MPEG Layer 3, 2 ch, ~128.00 kbps avg
MediaInfo
General
Complete name : C:\blond.avi
Format : AVI
Format/Info : Audio Video Interleave
File size : 747 MiB
Duration : 1h 36mn
Overall bit rate : 1 087 Kbps
Writing application : VirtualDubMod 1.5.10.2 (build 2540/release)
Writing library : VirtualDubMod build 2540/release

Video
ID : 0
Format : MPEG-4 Visual
Format profile : Advanced Simple@L5
Format settings, BVOP : 1
Format settings, QPel : No
Format settings, GMC : No warppoints
Format settings, Matrix : Custom
Codec ID : XVID
Codec ID/Hint : XviD
Duration : 1h 36mn
Bit rate : 950 Kbps
Width : 672 pixels
Height : 288 pixels
Display aspect ratio : 2.35:1
Frame rate : 23.976 fps
Color space : YUV
Chroma subsampling : 4:2:0
Bit depth : 8 bits
Scan type : Progressive
Compression mode : Lossy
Bits/(Pixel*Frame) : 0.205
Stream size : 652 MiB (87%)
Writing library : XviD 1.2.1 (UTC 2008-12-04)

Audio
ID : 1
Format : MPEG Audio
Format version : Version 1
Format profile : Layer 3
Codec ID : 55
Codec ID/Hint : MP3
Duration : 1h 36mn
Bit rate mode : Constant
Bit rate : 128 Kbps
Channel(s) : 2 channels
Sampling rate : 48.0 KHz
Compression mode : Lossy
Stream size : 87.9 MiB (12%)
Alignment : Aligned on interleaves
Interleave, duration : 42 ms (1.00 video frame)
Interleave, preload duration : 504 ms
Writing library : LAME3.98r
Encoding settings : -m s -V 4 -q 2 -lowpass 17 -b 128
Скриншоты
загрузка...
Правила, инструкции, FAQ!!!
Торрент  Добавлен [24 апр 2014, 14:07] Скачать торрент
Скачать торрент
[ Размер 15.05 КБ / Просмотров 9 ]

Статус  
 
Размер  746.52 МБ
Приватный: Нет (DHT включён)
.torrent скачан  0
Как залить торрент? | Как скачать Torrent? | Как смотреть и слушать онлайн?  


     Отправить личное сообщение
   
Страница 1 из 1
Показать сообщения за:  Поле сортировки  
Начать новую тему Ответить на тему

   Похожие торренты   Автор   Ответы   Просмотры   Последнее сообщение 
В этой теме нет новых непрочитанных сообщений. Скачать торрент Проверен Блондинка в законе / Legally Blonde (2001) HDRip

в форуме Драмы, Мелодрамы, Размер: 1.45 ГБ, Здоровье: 100%

Гость

0
15|10

48
0

10 янв 2015, 22:43

Гость Перейти к последнему сообщению

В этой теме нет новых непрочитанных сообщений. Скачать торрент Блондинка в законе 2: Красное, белое и блондинка / Legally Blonde 2: Red, White & Blonde (2003) BDRip

в форуме Комедии, Размер: 1.45 ГБ, Здоровье: 100%

Anonymous

0
15|1

37
139

20 янв 2014, 14:59

Anonymous Перейти к последнему сообщению

В этой теме нет новых непрочитанных сообщений. Скачать торрент Проверен [iPhone] Голая правда / The Ugly Truth (Роберт Лукетич / Robert Luketic) [2009 г., Комедия, мелодрама, DVDRip] Dub

в форуме Фильмы для iPod, iPhone, iPad, Размер: 870.2 МБ, Здоровье: 100%

Anonymous

0
20|4

26
0

18 май 2015, 10:34

Anonymous Перейти к последнему сообщению

В этой теме нет новых непрочитанных сообщений. Скачать торрент Проверен [iPad] Голая правда / The Ugly Truth (Роберт Лукетич / Robert Luketic) [2009 г., комедия, мелодрама, BDRip 720p]

в форуме Фильмы для iPod, iPhone, iPad, Размер: 1.84 ГБ, Здоровье: 100%

Гость

0
78|1

39
1

12 май 2015, 00:08

Гость Перейти к последнему сообщению

В этой теме нет новых непрочитанных сообщений. Скачать торрент Двадцать одно / 21 (Роберт Лукетич / Robert Luketic) [2008, драма, криминал, DVDRip] Dub

в форуме Драмы, Мелодрамы, Размер: 1.46 ГБ, Здоровье: 100%

Anonymous

0
56|19

29
0

06 фев 2014, 11:43

Anonymous Перейти к последнему сообщению



Сейчас этот форум просматривают: нет зарегистрированных пользователей и гости: 1


Вы не можете начинать темы
Вы не можете отвечать на сообщения
Вы не можете редактировать свои сообщения
Вы не можете удалять свои сообщения
Вы не можете добавлять вложения

Перейти:  

!ВНИМАНИЕ!
 Ресурс не предоставляет электронные версии произведений, а занимается лишь коллекционированием и каталогизацией ссылок, присылаемых и публикуемых на форуме нашими читателями. Если вы являетесь правообладателем какого-либо представленного материала и не желаете чтобы ссылка на него находилась в нашем каталоге, свяжитесь с нами и мы незамедлительно удалим её. Файлы для обмена на трекере предоставлены пользователями сайта, и администрация не несёт ответственности за их содержание. Просьба не заливать файлы, защищенные авторскими правами, а также файлы нелегального содержания!