На всех торрентах на трекере установлена скидка на скачивание в размере 100 процентов(а).
 Возможность скачивания торрента НЕ зависит от ограничений при низком ратио, низком аплоаде, требуемом ратио или требуемом аплоаде.


Начать новую тему Ответить на тему
Статистика раздачи
Размер: 1.32 ГБ | Добавлен: 24 апр 2014, 14:06 | Скачали: 0
Сидеров: 8  [0 байт/сек]    Личеров: 2  [0 байт/сек]
Пред. тема | След. тема 

Автор
Сообщение

СообщениеДобавлено: 24 апр 2014, 14:06 

Час пик 2 / Rush Hour 2

Страна: США, Гонконг
Жанр: Комедия, Боевик
Год выпуска: 2001
Продолжительность: 01:30:04

Перевод: Одноголосый закадровый
Cубтитры: нет
Режиссер: Бретт Рэтнер / Brett Ratner

В ролях: В ролях: Джеки Чан, Крис Такер, Джон Лоне, Цзыи Чжан, Розелин Санчез, Харрис Юлин, Алан Кинг, Кеннет Цан, Мей Меланкон и др.

Описание: Описание: Детективы Ли и Картер снова вместе! На этот раз — в Гонконге, куда Картер приехал, чтобы отдохнуть и оттянуться в компании старого приятеля. Приятель же как раз в этот момент занят важным расследованием — он выслеживает одного из боссов Триады, подозреваемого в организации взрыва в американском посольстве...

Доп. информация: Особенный одноголосый перевод (очень редкий), которого нет у других раздающих (НЕ Гаврилов!!!).

Отрывки (Сэмпл): 1) http://yadi.sk/d/Ybn2ZQNCKdCnv
2) http://yadi.sk/d/A6rNrTFrLFdw7

Качество видео: HDRip
Формат видео: AVI

Видео: XviD build 65, 720x304 (2.37:1), 23.976 fps, 1850 kbps avg
Аудио: MPEG Layer 3, 44.100 kHz, 256.00 kbps,
MediaInfo
General
Complete name : \Сэмпл.avi
Format : AVI
Format/Info : Audio Video Interleave
File size : 36.8 MiB
Duration : 2mn 0s
Overall bit rate : 2 551 Kbps
Movie name : Chas_Pik_2001_DVDRip_Menen_Dub
Director : Menen
Writing application : VirtualDubMod 1.5.10.2 (build 2540/release)
Writing library : VirtualDub build 32507/release

Video
ID : 0
Format : MPEG-4 Visual
Format profile : Advanced Simple@L5
Format settings, BVOP : 1
Format settings, QPel : No
Format settings, GMC : No warppoints
Format settings, Matrix : Custom
Codec ID : XVID
Codec ID/Hint : XviD
Duration : 2mn 0s
Bit rate : 2 284 Kbps
Width : 720 pixels
Height : 304 pixels
Display aspect ratio : 2.35:1
Frame rate : 23.976 fps
Color space : YUV
Chroma subsampling : 4:2:0
Bit depth : 8 bits
Scan type : Progressive
Compression mode : Lossy
Bits/(Pixel*Frame) : 0.435
Stream size : 32.9 MiB (90%)
Writing library : XviD 65

Audio
ID : 1
Format : MPEG Audio
Format version : Version 1
Format profile : Layer 3
Codec ID : 55
Codec ID/Hint : MP3
Duration : 2mn 0s
Bit rate mode : Constant
Bit rate : 256 Kbps
Channel count : 2 channels
Sampling rate : 44.1 KHz
Compression mode : Lossy
Delay relative to video : 6ms
Stream size : 3.69 MiB (10%)
Alignment : Split accross interleaves
Interleave, duration : 42 ms (1.00 video frame)
Interleave, preload duration : 500 ms
Writing library : LAME3.98.2

загрузка...
Правила, инструкции, FAQ!!!
Торрент  Добавлен [24 апр 2014, 14:06] Скачать торрент
Скачать торрент
[ Размер 13.84 КБ / Просмотров 13 ]

Статус  
 
Размер  1.32 ГБ
Приватный: Нет (DHT включён)
.torrent скачан  0
Как залить торрент? | Как скачать Torrent? | Как смотреть и слушать онлайн?  


     Отправить личное сообщение
   
Страница 1 из 1
Показать сообщения за:  Поле сортировки  
Начать новую тему Ответить на тему

   Похожие торренты   Автор   Ответы   Просмотры   Последнее сообщение 
В этой теме нет новых непрочитанных сообщений. Скачать торрент После заката / After the Sunset (Бретт Рэтнер / Brett Ratner) [2004 г., боевик, криминальная комедия, драма, BDRip-AVC] Dub

в форуме Боевики, Размер: 2.4 ГБ, Здоровье: 100%

Anonymous

0
8|2

45
0

22 апр 2014, 11:51

Anonymous Перейти к последнему сообщению

В этой теме нет новых непрочитанных сообщений. Скачать торрент Проверен [iPad] Как украсть небоскреб / Tower Heist (Бретт Рэтнер / Brett Ratner ) [2011, США, Боевик, комедия, криминал, BDRip, SD (576p)] DUB + Original + sub (rus, eng)

в форуме Фильмы для iPod, iPhone, iPad, Размер: 1.8 ГБ, Здоровье: 100%

Гость

0
20|7

28
0

11 май 2015, 01:39

Гость Перейти к последнему сообщению

В этой теме нет новых непрочитанных сообщений. Скачать торрент Красный Дракон / Red Dragon (Бретт Рэтнер / Brett Ratner) [2002, США, Триллер, драма, детектив, BDRip] Dub

в форуме Триллеры, Размер: 1.46 ГБ, Здоровье: 0%

Anonymous

0
0|0

47
0

25 апр 2014, 08:54

Anonymous Перейти к последнему сообщению

В этой теме нет новых непрочитанных сообщений. Скачать торрент Люди Икс: Последняя битва / X-Men: The Last Stand (Бретт Рэтнер / Brett Ratner) [2006, США, Канада, Великобритания, Фантастический комикс, BDRip] Dub

в форуме Фантастика, Фэнтези, Размер: 1.78 ГБ, Здоровье: 100%

Anonymous

0
27|9

48
0

19 апр 2014, 18:49

Anonymous Перейти к последнему сообщению

В этой теме нет новых непрочитанных сообщений. Скачать торрент Проверен [iPhone] Как украсть небоскреб / Tower Heist (Бретт Рэтнер / Bratt Ratner) [2011, комедия, криминал, BDRip, 720x320] Rus + Eng + Eng Subs

в форуме Фильмы для iPod, iPhone, iPad, Размер: 1.07 ГБ, Здоровье: 100%

Гость

0
5|2

35
0

18 май 2015, 10:37

Гость Перейти к последнему сообщению



Сейчас этот форум просматривают: нет зарегистрированных пользователей и гости: 1


Вы не можете начинать темы
Вы не можете отвечать на сообщения
Вы не можете редактировать свои сообщения
Вы не можете удалять свои сообщения
Вы не можете добавлять вложения

Перейти:  

!ВНИМАНИЕ!
 Ресурс не предоставляет электронные версии произведений, а занимается лишь коллекционированием и каталогизацией ссылок, присылаемых и публикуемых на форуме нашими читателями. Если вы являетесь правообладателем какого-либо представленного материала и не желаете чтобы ссылка на него находилась в нашем каталоге, свяжитесь с нами и мы незамедлительно удалим её. Файлы для обмена на трекере предоставлены пользователями сайта, и администрация не несёт ответственности за их содержание. Просьба не заливать файлы, защищенные авторскими правами, а также файлы нелегального содержания!