На всех торрентах на трекере установлена скидка на скачивание в размере 100 процентов(а).
 Возможность скачивания торрента НЕ зависит от ограничений при низком ратио, низком аплоаде, требуемом ратио или требуемом аплоаде.


Начать новую тему Ответить на тему
Статистика раздачи
Размер: 2.18 ГБ | Добавлен: 22 апр 2014, 11:47 | Скачали: 0
Сидеров: 34  [0 байт/сек]    Личеров: 11  [0 байт/сек]
Пред. тема | След. тема 

Автор
Сообщение

СообщениеДобавлено: 22 апр 2014, 11:47 

Страна: Германия, США, Франция
Жанр: Комедия, мелодрама
Год выпуска: 2004
Продолжительность: 01:43:05
Перевод #1: Профессиональный полное дублирование
Перевод #2: Профессиональный (двухголосый закадровый) Tycoоn-studio
Оригинальная аудиодорожка: Английская
Cубтитры: Русские, Английские

Режиссер: Бибан Кидрон / (Beeban Kidron)

В ролях: Рене Зеллвегер / (Bridget Jones), Джемма Джонс / (Mum), Джим Броудбент / (Dad), Джеймс Фолкнер / (Uncle Geoffrey ), Селия Имри / (Una Alconbury), Доминик МакХейл / (Bernard), Колин Фёрт / (Mark Darcy), Дональд Дуглас / (Admiral Darcy ), Ширли Диксон / (Mrs. Darcy), Нил Пирсон / (Richard Finch)
Описание:
Между событиями первого и второго фильмов четыре недели, и снова Бриджет не устраивают её отношения с Марком Дарси. Помимо того, что он оказался избирателем консерваторов, она вынуждена иметь дело со странным подрядчиком своего нового начальника, к тому же отпуск оборачивается полной неудачей…
Бюджет: $40 000 000
Сборы в США: $40 226 215
Сборы в мире: + $221 482 940 = $261 709 155
Сборы в России: $2 375 000
Доп. информация: | Kinopoisk | IMDB | Сэмпл #1 (multi-up.com) | Сэмпл #2 (Narod.ru) |

Качество: DVDRip-AVC
Формат: Mkv
Видео кодек: H.264
Аудио кодек: AC3
Видео: 716x428@1018х428, (2.35:1), 25 fps, ~ 1747 Кбит/сек
Аудио #1: 48 kHz, AC3 Dolby Digital, 3/2 (L,C,R,l,r) + LFE ch, ~384kbps | Профессиональный полное дублирование |
Аудио #2: 48 kHz, AC3 Dolby Digital, 3/2 (L,C,R,l,r) + LFE ch, ~448kbps | Профессиональный (двухголосый закадровый) | Tycoоn-studio
Аудио #3: 48 kHz, AC3 Dolby Digital, 3/2 (L,C,R,l,r) + LFE ch, ~448kbps | Оригинальная ангийская дорожка |
Формат субтитров: softsub (SRT) | Русские, английские
MediaInfo/x264
MediaInfo
Код:
Код:
Полное имя                       : Bridget Jones The Edge of Reason 2004 x264 DVDRip-AVC Gambit.mkv
Формат                           : Matroska
Размер файла                     : 2,18 Гбайт
Продолжительность                : 1 ч. 43 м.
Общий поток                      : 3028 Кбит/сек
Дата кодирования                 : UTC 2011-07-27 20:43:29
Программа кодирования            : mkvmerge v4.9.1 ('Ich will') сборка от Jul 11 2011 23:53:15
Библиотека кодирования           : libebml v1.2.1 + libmatroska v1.1.1

Видео
Идентификатор                    : 1
Формат                           : AVC
Формат/Информация                : Advanced Video Codec
Профиль формата                  : High@L3.1
Параметр CABAC формата           : Да
Параметр ReFrames формата        : 9 кадры
Параметры GOP формата            : M=8, N=49
Идентификатор кодека             : V_MPEG4/ISO/AVC
Продолжительность                : 1 ч. 43 м.
Битрейт                          : 1747 Кбит/сек
Ширина                           : 716 пикс.
Высота                           : 428 пикс.
Соотношение сторон               : 2,35:1
Частота кадров                   : 25,000 кадр/сек
Цветовое пространство            : YUV
Подвыборка цветности             : 4:2:0
Битовая глубина                  : 8 бит
Тип развёртки                    : Прогрессивная
Бит/(Пиксели*Кадры)              : 0.228
Размер потока                    : 1,22 Гбайт (56%)
Заголовок                        : Bridget Jones: The Edge of Reason 2004 x264 DVDRip-AVC Gambit
Библиотека кодирования           : x264 core 115 r1936 7a9e08d
Настройки программы              : cabac=1 / ref=9 / deblock=1:-2:-1 / analyse=0x3:0x133 / me=umh / subme=10 / psy=1 / psy_rd=1.15:0.04 / mixed_ref=1 / me_range=32 / chroma_me=1 / trellis=2 / 8x8dct=1 / cqm=0 / deadzone=21,11 / fast_pskip=1 / chroma_qp_offset=-6 / threads=6 / sliced_threads=0 / nr=0 / decimate=1 / interlaced=0 / bluray_compat=0 / constrained_intra=0 / bframes=9 / b_pyramid=2 / b_adapt=2 / b_bias=0 / direct=3 / weightb=1 / open_gop=0 / weightp=2 / keyint=250 / keyint_min=25 / scenecut=40 / intra_refresh=0 / rc_lookahead=80 / rc=2pass / mbtree=1 / bitrate=1747 / ratetol=1.0 / qcomp=0.65 / qpmin=0 / qpmax=51 / qpstep=4 / cplxblur=20.0 / qblur=0.5 / ip_ratio=1.40 / aq=2:0.90 / zones=146053,154625,q=35
Язык                             : English

Аудио #1
Идентификатор                    : 2
Формат                           : AC-3
Формат/Информация                : Audio Coding 3
Расширение режима                : CM (complete main)
Идентификатор кодека             : A_AC3
Продолжительность                : 1 ч. 43 м.
Вид битрейта                     : Постоянный
Битрейт                          : 384 Кбит/сек
Канал(ы)                         : 6 канала(ов)
Расположение каналов             : Front: L C R, Side: L R, LFE
Частота                          : 48,0 КГц
Битовая глубина                  : 16 бит
Метод сжатия                     : С потерями
Размер потока                    : 283 Мбайт (13%)
Заголовок                        : Dub
Язык                             : Russian

Аудио #2
Идентификатор                    : 3
Формат                           : AC-3
Формат/Информация                : Audio Coding 3
Расширение режима                : CM (complete main)
Идентификатор кодека             : A_AC3
Продолжительность                : 1 ч. 43 м.
Вид битрейта                     : Постоянный
Битрейт                          : 448 Кбит/сек
Канал(ы)                         : 6 канала(ов)
Расположение каналов             : Front: L C R, Side: L R, LFE
Частота                          : 48,0 КГц
Битовая глубина                  : 16 бит
Метод сжатия                     : С потерями
Размер потока                    : 330 Мбайт (15%)
Заголовок                        : DVO (Tycoоn-studio)
Язык                             : Russian

Аудио #3
Идентификатор                    : 4
Формат                           : AC-3
Формат/Информация                : Audio Coding 3
Расширение режима                : CM (complete main)
Идентификатор кодека             : A_AC3
Продолжительность                : 1 ч. 43 м.
Вид битрейта                     : Постоянный
Битрейт                          : 448 Кбит/сек
Канал(ы)                         : 6 канала(ов)
Расположение каналов             : Front: L C R, Side: L R, LFE
Частота                          : 48,0 КГц
Битовая глубина                  : 16 бит
Метод сжатия                     : С потерями
Размер потока                    : 330 Мбайт (15%)
Заголовок                        : Original (Eng)
Язык                             : English

Текст #1
Идентификатор                    : 5
Формат                           : UTF-8
Идентификатор кодека             : S_TEXT/UTF8
Идентификатор кодека/Информация  : UTF-8 Plain Text
Заголовок                        : Rus
Язык                             : Russian

Текст #2
Идентификатор                    : 6
Формат                           : UTF-8
Идентификатор кодека             : S_TEXT/UTF8
Идентификатор кодека/Информация  : UTF-8 Plain Text
Заголовок                        : Eng
Язык                             : English

x264
Код:
Код:
...last pass...

x264_64.exe: --pass 2 --bitrate 1747 --preset veryslow --ref 9 --aq-mode 2 --aq-strength 0.9 --deblock -2:-1 --merange 32 --bframes 9 --qpmax 51 --psy-rd 1.15:0.04 --qcomp 0.65 --chroma-qp-offset -3 --slow-firstpass --rc-lookahead 80 --pbratio 1.25 --zones 146053,154625,q=35 --stats "D:\BRIDGET_JONES_2_T14_8.log" --sar 64:45 --output "D:\BRIDGET_JONES_2_T14_8.mkv" "D:\Temp\0026.avs"

raw [info]: 716x428p 64:45 @ 25/1 fps (cfr)
x264 [info]: using SAR=64/45
x264 [info]: using cpu capabilities: MMX2 SSE2Fast SSSE3 FastShuffle SSE4.2 AVX
x264 [info]: profile High, level 3.1

x264 [info]: frame I:1360  Avg QP:17.39  size: 62066
x264 [info]: frame P:29319 Avg QP:21.36  size: 21968
x264 [info]: frame B:123946 Avg QP:24.49  size:  5017
x264 [info]: consecutive B-frames:  1.4%  0.9%  3.8% 11.0%  7.8% 72.2%  2.2%  0.4%  0.3%  0.2%
x264 [info]: mb I  I16..4:  7.1% 71.3% 21.5%
x264 [info]: mb P  I16..4:  1.1%  9.1%  1.7%  P16..4: 44.5% 24.4%  8.0%  0.6%  0.6%    skip:10.0%
x264 [info]: mb B  I16..4:  0.0%  0.7%  0.2%  B16..8: 38.1%  8.8%  2.7%  direct: 6.9%  skip:42.6%  L0:40.3% L1:37.6% BI:22.1%
x264 [info]: 8x8 transform intra:75.5% inter:66.9%
x264 [info]: direct mvs  spatial:97.4% temporal:2.6%
x264 [info]: coded y,uvDC,uvAC intra: 89.0% 91.2% 79.7% inter: 21.8% 30.6% 16.2%
x264 [info]: i16 v,h,dc,p: 44% 16%  7% 33%
x264 [info]: i8 v,h,dc,ddl,ddr,vr,hd,vl,hu: 19%  8%  6%  8% 12% 15% 10% 13% 10%
x264 [info]: i4 v,h,dc,ddl,ddr,vr,hd,vl,hu: 21%  8%  4%  8% 12% 16% 10% 13%  9%
x264 [info]: i8c dc,h,v,p: 46% 14% 24% 16%
x264 [info]: Weighted P-Frames: Y:2.9% UV:1.7%
x264 [info]: ref P L0: 44.5% 11.6% 17.7%  8.5%  6.0%  4.6%  3.5%  2.1%  1.5%  0.1%  0.0%
x264 [info]: ref B L0: 80.9% 11.0%  3.6%  1.7%  1.2%  0.9%  0.5%  0.2%
x264 [info]: ref B L1: 95.8%  4.2%
x264 [info]: kb/s:1746.64

x264 [total]: encoded 154625 frames, 16.44 fps, 1746.64 kb/s

Скриншоты




загрузка...
Правила, инструкции, FAQ!!!
Торрент  Добавлен [22 апр 2014, 11:47] Скачать торрент
Скачать торрент
[ Размер 11.43 КБ / Просмотров 12 ]

Статус  
 
Размер  2.18 ГБ
Приватный: Нет (DHT включён)
.torrent скачан  0
Как залить торрент? | Как скачать Torrent? | Как смотреть и слушать онлайн?  


     Отправить личное сообщение
   
Страница 1 из 1
Показать сообщения за:  Поле сортировки  
Начать новую тему Ответить на тему

   Похожие торренты   Автор   Ответы   Просмотры   Последнее сообщение 
В этой теме нет новых непрочитанных сообщений. Скачать торрент Проверен [iPad]Дневник Бриджит Джонс / Bridget Jones's Diary (Шэрон Магуайр/Sharon Maguire) [2001, Комедия, мелодрама, драма, BDRip, 1024x432] Dub

в форуме Фильмы для iPod, iPhone, iPad, Размер: 1.67 ГБ, Здоровье: 100%

Anonymous

0
57|19

30
1

12 май 2015, 00:09

Anonymous Перейти к последнему сообщению

В этой теме нет новых непрочитанных сообщений. Скачать торрент Проверен Хелен Филдинг/Helen Fielding - "Дневник Бриджит Джонс", "Грани разумного" [fb2] [1998, 1999]

в форуме Женский роман, Размер: 1004.7 КБ, Здоровье: 0%

Anonymous

0
0|0

4
1

28 авг 2016, 20:59

Anonymous Перейти к последнему сообщению

В этой теме нет новых непрочитанных сообщений. Скачать торрент Дневник Бриджет Джонс / Bridget Jones's Diary (Шэрон Магуайр / Sharon Maguire) [2001, США, Великобритания, Ирландия, Франция, Романтическая комедия, BDRip] Dub (ОРТ)

в форуме Комедии, Размер: 2.61 ГБ, Здоровье: 100%

Anonymous

0
16|6

60
0

26 апр 2014, 20:56

Anonymous Перейти к последнему сообщению

В этой теме нет новых непрочитанных сообщений. Скачать торрент Проверен Лоран Дюшен и Бриджит Джонс - Новое о десерте: кулинарные шедевры от Le Cordon Bleu [2001, DjVu, RUS]

в форуме Кулинария, Размер: 13.82 МБ, Здоровье: 0%

Anonymous

0
0|0

4
1

19 окт 2016, 23:43

Anonymous Перейти к последнему сообщению

В этой теме нет новых непрочитанных сообщений. Скачать торрент Нортенгерское аббатство / Northanger Abbey (Джон Джонс / Jon Jones) [2006, драма, мелодрама, DVDRip]

в форуме Драмы, Мелодрамы, Размер: 743.63 МБ, Здоровье: 100%

Anonymous

0
10|3

65
0

03 апр 2014, 12:42

Anonymous Перейти к последнему сообщению



Сейчас этот форум просматривают: нет зарегистрированных пользователей и гости: 1


Вы не можете начинать темы
Вы не можете отвечать на сообщения
Вы не можете редактировать свои сообщения
Вы не можете удалять свои сообщения
Вы не можете добавлять вложения

Перейти:  

!ВНИМАНИЕ!
 Ресурс не предоставляет электронные версии произведений, а занимается лишь коллекционированием и каталогизацией ссылок, присылаемых и публикуемых на форуме нашими читателями. Если вы являетесь правообладателем какого-либо представленного материала и не желаете чтобы ссылка на него находилась в нашем каталоге, свяжитесь с нами и мы незамедлительно удалим её. Файлы для обмена на трекере предоставлены пользователями сайта, и администрация не несёт ответственности за их содержание. Просьба не заливать файлы, защищенные авторскими правами, а также файлы нелегального содержания!