На всех торрентах на трекере установлена скидка на скачивание в размере 100 процентов(а).
 Возможность скачивания торрента НЕ зависит от ограничений при низком ратио, низком аплоаде, требуемом ратио или требуемом аплоаде.


Начать новую тему Ответить на тему
Статистика раздачи
Размер: 2.04 ГБ | Добавлен: 22 апр 2014, 11:42 | Скачали: 0
Сидеров: 0  [0 байт/сек]    Личеров: 0  [0 байт/сек]
Пред. тема | След. тема 

Автор
Сообщение

СообщениеДобавлено: 22 апр 2014, 11:42 

Невезучие / Tais-toi! (2003) HDRip

Название: Невезучие
Оригинальное название: Tais-toi!
Год выхода: 2003
Жанр: комедия, криминал
Выпущено: Франция
Продолжительность: 01:27:07

Режиссер: Франсис Вебер

В ролях: Жерар Депардье, Жан Рено, Ришар Берри, Андре Дюссолье, Жан-Пьер Мало, Жан-Мишель Нойре, Лорен Гамелон, Винсен Москато, Тики Ольдаго, Мишель Омон



Описание: Руби успевает спрятать награбленные деньги прежде, чем угодить в тюрьму, где знакомится верзилой Квентином. Теперь они вместе ломают голову над тем, как выбраться на волю и вытащить деньги из тайника… К тому же Руби мечтает отомстить своим бывшим компаньонам, ответственным за смерть его возлюбленной! Но вот как-то им все время не везет! Однако, не даром говорят, если долго мучиться…



Качество: HDRip (исходник BD Remux)
Формат: MKV
Видео: AVC (x264), 1024x432, 23.976 fps, ~2,4 mbps
Аудио#1: Russian: 48 kHz, AC-3, 6 ch,~448.00 kbps |Профессиональный (полное дублирование)|
Субтитры: нет
MediaInfo
Код:
Код:
General
Complete name                    : Невезучие (2003) HDRip.mkv
Format                           : Matroska
File size                        : 2.04 GiB
Duration                         : 1h 27mn
Overall bit rate                 : 3 357 Kbps
Encoded date                     : UTC 2010-02-20 09:54:58
Writing application              : mkvmerge v2.9.8 ('C'est le bon') built on Aug 24 2009 17:34:03
Writing library                  : libebml v0.7.7 + libmatroska v0.8.1

Video
ID                               : 1
Format                           : AVC
Format/Info                      : Advanced Video Codec
Format profile                   : High@L4.1
Format settings, CABAC           : Yes
Format settings, ReFrames        : 3 frames
Muxing mode                      : Container profile=Unknown@4.1
Codec ID                         : V_MPEG4/ISO/AVC
Duration                         : 1h 27mn
Bit rate                         : 2 442 Kbps
Nominal bit rate                 : 2 507 Kbps
Width                            : 1 024 pixels
Height                           : 432 pixels
Display aspect ratio             : 2.35:1
Frame rate                       : 23.976 fps
Resolution                       : 8 bits
Colorimetry                      : 4:2:0
Scan type                        : Progressive
Bits/(Pixel*Frame)               : 0.268
Stream size                      : 1.73 GiB (85%)
Writing library                  : x264 core 75 r1251kMod e553a4c
Encoding settings                : cabac=1 / ref=3 / deblock=1:0:0 / analyse=0x3:0x113 / me=hex / subme=7 / psy=1 / psy_rd=1.0:0.0 / mixed_ref=1 / me_range=16 / chroma_me=1 / trellis=1 / 8x8dct=1 / cqm=0 / deadzone=21,11 / chroma_qp_offset=-2 / threads=3 / nr=0 / decimate=1 / mbaff=0 / bframes=3 / b_pyramid=0 / b_adapt=1 / b_bias=0 / direct=3 / wpredb=1 / keyint=250 / keyint_min=25 / scenecut=40 / rc_lookahead=40 / rc=2pass / mbtree=1 / bitrate=2907 / ratetol=1.0 / qcomp=0.60 / qpmin=10 / qpmax=51 / qpstep=4 / cplxblur=20.0 / qblur=0.5 / ip_ratio=1.40 / aq=1:1.00

Audio
ID                               : 2
Format                           : AC-3
Format/Info                      : Audio Coding 3
Codec ID                         : A_AC3
Duration                         : 1h 27mn
Bit rate mode                    : Constant
Bit rate                         : 448 Kbps
Channel(s)                       : 6 channels
Channel positions                : Front: L C R, Surround: L R, LFE
Sampling rate                    : 48.0 KHz
Stream size                      : 279 MiB (13%)

Скриншоты


загрузка...
Правила, инструкции, FAQ!!!
Торрент  Добавлен [22 апр 2014, 11:42] Скачать торрент
Скачать торрент
[ Размер 10.7 КБ / Просмотров 14 ]

Статус  
 
Размер  2.04 ГБ
Приватный: Нет (DHT включён)
.torrent скачан  0
Как залить торрент? | Как скачать Torrent? | Как смотреть и слушать онлайн?  


     Отправить личное сообщение
   
Страница 1 из 1
Показать сообщения за:  Поле сортировки  
Начать новую тему Ответить на тему

   Похожие торренты   Автор   Ответы   Просмотры   Последнее сообщение 
В этой теме нет новых непрочитанных сообщений. Скачать торрент Невезучие / Tais-toi! (Франсис Вебер / Francis Veber) [2003, Комедия, криминал, BDRip] Dub + Original + Subs (Rus, Eng)

в форуме Комедии, Размер: 1.73 ГБ, Здоровье: 0%

Anonymous

0
0|0

58
0

22 апр 2014, 11:50

Anonymous Перейти к последнему сообщению

В этой теме нет новых непрочитанных сообщений. Скачать торрент Проверен [iPad] Невезучие / Tais-toi! (Франсис Вебер / Francis Veber) [2003, комедия, криминал, BDRip, 720p]

в форуме Фильмы для iPod, iPhone, iPad, Размер: 2.3 ГБ, Здоровье: 100%

Гость

0
11|5

35
2

14 май 2015, 00:23

Гость Перейти к последнему сообщению

В этой теме нет новых непрочитанных сообщений. Скачать торрент Невезучие / Tais-toi! (Франсис Вебер /Francis Veber) [2003 г., Комедия, DVDRip]

в форуме Комедии, Размер: 1.37 ГБ, Здоровье: 0%

Anonymous

0
0|0

48
0

25 апр 2014, 08:55

Anonymous Перейти к последнему сообщению

В этой теме нет новых непрочитанных сообщений. Скачать торрент Проверен Беглецы / Les fugitifs (Франсис Вебер / Francis Veber) [1986, Франция, комедия, криминал, BDRip, 480p] DUB, Original + sub (rus)

в форуме Фильмы для iPod, iPhone, iPad, Размер: 1.29 ГБ, Здоровье: 100%

Гость

0
9|3

35
0

11 май 2015, 01:40

Гость Перейти к последнему сообщению

В этой теме нет новых непрочитанных сообщений. Скачать торрент Дублер / La doublure / The Valet (Франсис Вебер / Francis Veber) [2006, Франция, Италия, Бельгия, комедия, BDRip]

в форуме Комедии, Размер: 1.47 ГБ, Здоровье: ???%

Anonymous

0
0|2

43
1

19 апр 2014, 18:50

Anonymous Перейти к последнему сообщению



Сейчас этот форум просматривают: нет зарегистрированных пользователей и гости: 1


Вы не можете начинать темы
Вы не можете отвечать на сообщения
Вы не можете редактировать свои сообщения
Вы не можете удалять свои сообщения
Вы не можете добавлять вложения

Перейти:  

!ВНИМАНИЕ!
 Ресурс не предоставляет электронные версии произведений, а занимается лишь коллекционированием и каталогизацией ссылок, присылаемых и публикуемых на форуме нашими читателями. Если вы являетесь правообладателем какого-либо представленного материала и не желаете чтобы ссылка на него находилась в нашем каталоге, свяжитесь с нами и мы незамедлительно удалим её. Файлы для обмена на трекере предоставлены пользователями сайта, и администрация не несёт ответственности за их содержание. Просьба не заливать файлы, защищенные авторскими правами, а также файлы нелегального содержания!