На всех торрентах на трекере установлена скидка на скачивание в размере 100 процентов(а).
 Возможность скачивания торрента НЕ зависит от ограничений при низком ратио, низком аплоаде, требуемом ратио или требуемом аплоаде.


Начать новую тему Ответить на тему
Статистика раздачи
Размер: 1.57 ГБ | Добавлен: 22 апр 2014, 11:39 | Скачали: 0
Сидеров: 0  [0 байт/сек]    Личеров: 1  [0 байт/сек]
Пред. тема | След. тема 

Автор
Сообщение

СообщениеДобавлено: 22 апр 2014, 11:39 

Сердца мужчин / Le Coeur Des Hommes

Страна: Франция
Жанр: Комедия
Год выпуска: 2003
Продолжительность: Комедия

Перевод: Профессиональный (двухголосый закадровый)
Cубтитры: русские
Оригинальная аудиодорожка: французский

Режиссер: Марк Эспозито / Marc Esposito

В ролях:Жерар Дармон /Gerard Darmon/, Бернар Кампан /Bernard Campan/, Жан-Пьер Даруссен /Jean-Pierre Darroussin/, Марк Лавуан /Marc Lavoine/, Людмила Микаэль /Ludmila Mikael/, Фабьенн Баб /Fabienne Babe/, Зоэ Феликс /Zoe Felix/, Флоранс Томассен /Florence Thomassin/

Описание:Когда-то Антуан, Маню, Алекс и Джефф были молоды и играли в одной футбольной команде. Сейчас им всем уже за 50, у каждого свое дело, но в личной жизни – никакой стабильности. Измены, бурные романы и мимолетные влюбленности, предательство и потеря близких. Многое готовы претерпеть друзья для обретения постоянной подруги и уютного семейного очага, - даже отказаться от традиционных привилегий «сильного» пола, лишь бы их любили и прощали невинные (?) мужские шалости. Потому что, как откровенно сказал один из героев: «Есть мужчины свободные, а есть другие – счастливые мужчины!»

Доп. информация: Релиз
КАК ВСЕГДА БОЛЬШОЕ СПАСИБО:
Рип grafd
Сэмпл: http://multi-up.com/565993

Качество видео: DVDRip
Формат видео: AVI

Видео: 720x400 (1.80:1), 25 fps, XviD MPEG-4 ~1926 kbps avg, 0.27 bit/pixel
Аудио: 48 kHz, MPEG Layer 3, 2 ch, ~128.00 kbps avg
Аудио 2: Французский 48 kHz, MPEG Layer 3, 2 ch, ~128.00 kbps avg
Формат субтитров: softsub (SRT)
MediaInfo
General
Complete name : D:\КИНО\Раздачи\Le.Coeur.Des.Hommes.RU.FR.grafd.fenixclub.com.avi
Format : AVI
Format/Info : Audio Video Interleave
File size : 1.57 GiB
Duration : 1h 42mn
Overall bit rate : 2 198 Kbps
Director : grafd
Writing application : VirtualDubMod 1.5.10.2 (build 2542/release)
Writing library : VirtualDubMod build 2542/release
Comment : fenixclub.com

Video
ID : 0
Format : MPEG-4 Visual
Format profile : AdvancedSimple@L5
Format settings, BVOP : Yes
Format settings, QPel : No
Format settings, GMC : No warppoints
Format settings, Matrix : Default (H.263)
Muxing mode : Packed bitstream
Codec ID : XVID
Codec ID/Hint : XviD
Duration : 1h 42mn
Bit rate : 1 928 Kbps
Width : 720 pixels
Height : 400 pixels
Display aspect ratio : 16:9
Frame rate : 25.000 fps
Resolution : 24 bits
Colorimetry : 4:2:0
Scan type : Progressive
Bits/(Pixel*Frame) : 0.268
Stream size : 1.38 GiB (88%)
Writing library : XviD 63

Audio #1
ID : 1
Format : MPEG Audio
Format version : Version 1
Format profile : Layer 3
Codec ID : 55
Codec ID/Hint : MP3
Duration : 1h 42mn
Bit rate mode : Constant
Bit rate : 128 Kbps
Channel(s) : 2 channels
Sampling rate : 48.0 KHz
Resolution : 16 bits
Stream size : 93.5 MiB (6%)
Alignment : Aligned on interleaves
Interleave, duration : 40 ms (1.00 video frame)
Interleave, preload duration : 504 ms
Title : ru

Audio #2
ID : 2
Format : MPEG Audio
Format version : Version 1
Format profile : Layer 3
Codec ID : 55
Codec ID/Hint : MP3
Duration : 1h 42mn
Bit rate mode : Constant
Bit rate : 128 Kbps
Channel(s) : 2 channels
Sampling rate : 48.0 KHz
Resolution : 16 bits
Stream size : 93.5 MiB (6%)
Alignment : Aligned on interleaves
Interleave, duration : 40 ms (1.00 video frame)
Interleave, preload duration : 504 ms
Title : fr
Скриншоты
загрузка...
Правила, инструкции, FAQ!!!
Торрент  Добавлен [22 апр 2014, 11:39] Скачать торрент
Скачать торрент
[ Размер 16.32 КБ / Просмотров 13 ]

Статус  
 
Размер  1.57 ГБ
Приватный: Нет (DHT включён)
.torrent скачан  0
Как залить торрент? | Как скачать Torrent? | Как смотреть и слушать онлайн?  


     Отправить личное сообщение
   
Страница 1 из 1
Показать сообщения за:  Поле сортировки  
Начать новую тему Ответить на тему

   Похожие торренты   Автор   Ответы   Просмотры   Последнее сообщение 
В этой теме нет новых непрочитанных сообщений. Скачать торрент Группиз не остаются на завтрак / Groupies bleiben nicht zum Frühstück / Fruehstueck (Марк Ротемунд / Marc Rothemund) [2010, Германия, Комедия, DVDRip] MVO + Original + Sub rus

в форуме Комедии, Размер: 1.67 ГБ, Здоровье: 0%

Anonymous

0
0|0

37
0

13 фев 2014, 11:40

Anonymous Перейти к последнему сообщению

В этой теме нет новых непрочитанных сообщений. Скачать торрент Мертвые парни не кричат / Dead Boyz Don't Scream (Марк Салтарелли / Marc Saltarelli) [2006 г., комедия, ужасы, гей-тема, DVDRip]

в форуме Комедии, Размер: 859.65 МБ, Здоровье: 100%

Anonymous

0
7|3

68
0

15 апр 2014, 08:16

Anonymous Перейти к последнему сообщению

В этой теме нет новых непрочитанных сообщений. Скачать торрент Шайтан / Sheitan (Ким Шапирон / Kim Shapiron) [2006, Франция, ужасы, комедия, триллер, DVDRip] DUB + sub rus+ original fre

в форуме Ужасы, Размер: 1.73 ГБ, Здоровье: 0%

Anonymous

0
0|0

29
0

04 фев 2014, 21:24

Anonymous Перейти к последнему сообщению

В этой теме нет новых непрочитанных сообщений. Скачать торрент Проверен Люблю смотреть на девушек / J'aime regarder les filles (Фредерик Луф / Fred Louf) [2011, Франция, комедия, DVDRip] Sub Rus + Original Fre

в форуме Комедии, Размер: 1.37 ГБ, Здоровье: 100%

Anonymous

0
14|4

49
0

08 авг 2014, 09:54

Anonymous Перейти к последнему сообщению

В этой теме нет новых непрочитанных сообщений. Скачать торрент Проверен Обыкновенное чудо (Марк Захаров) [1978, СССР, мюзикл, фэнтези, мелодрама, комедия, DVDRip SD (480p)] Original + SUB (rus, eng)

в форуме Фильмы для iPod, iPhone, iPad, Размер: 2.26 ГБ, Здоровье: 100%

Гость

0
29|10

41
0

11 май 2015, 01:26

Гость Перейти к последнему сообщению



Сейчас этот форум просматривают: нет зарегистрированных пользователей и гости: 1


Вы не можете начинать темы
Вы не можете отвечать на сообщения
Вы не можете редактировать свои сообщения
Вы не можете удалять свои сообщения
Вы не можете добавлять вложения

Перейти:  

!ВНИМАНИЕ!
 Ресурс не предоставляет электронные версии произведений, а занимается лишь коллекционированием и каталогизацией ссылок, присылаемых и публикуемых на форуме нашими читателями. Если вы являетесь правообладателем какого-либо представленного материала и не желаете чтобы ссылка на него находилась в нашем каталоге, свяжитесь с нами и мы незамедлительно удалим её. Файлы для обмена на трекере предоставлены пользователями сайта, и администрация не несёт ответственности за их содержание. Просьба не заливать файлы, защищенные авторскими правами, а также файлы нелегального содержания!