На всех торрентах на трекере установлена скидка на скачивание в размере 100 процентов(а).
 Возможность скачивания торрента НЕ зависит от ограничений при низком ратио, низком аплоаде, требуемом ратио или требуемом аплоаде.


Начать новую тему Ответить на тему
Статистика раздачи
Размер: 1.45 ГБ | Добавлен: 19 апр 2014, 18:52 | Скачали: 0
Сидеров: 0  [0 байт/сек]    Личеров: 0  [0 байт/сек]
Пред. тема | След. тема 

Автор
Сообщение

СообщениеДобавлено: 19 апр 2014, 18:52 

Женщины с 6-го этажа / Les Femmes du 6e étage

Страна: Франция
Жанр: комедия
Год выпуска: 2010
Продолжительность: 01:41:57

Перевод: Одноголосый закадровый [zamez]
Cубтитры: нет
Режиссер: Филипп Ле Гюэ / Philippe Le Guay

В ролях: Фабрис Лукини, Сандрин Киберлэн, Наталия Вербеке, Кармен Маура, Лола Дуэньяс, Берта Охеа, Нурия Соле, Конча Галан, Мари-Армель Дегюй

Описание: Париж, 60-е годы 20-го века. Размеренный ход жизни богатой семьи нарушен - в доме появилась новая горничная, молодая испанка...
Красивая и трогательная история, великолепная музыка и замечательная актерская игра делают этот фильм незабываемым.

Сэмпл: http://multi-up.com/585028

Качество видео: HDRip[Исходник неизвестен]
Формат видео: AVI

Видео: 704x384 (1.83:1), 25 fps, XviD build 64 ~1643 kbps avg, 0.24 bit/pixel
Аудио: 48 kHz, AC3 Dolby Digital, 3/2 (L,C,R,l,r) + LFE ch, ~384 kbps
MediaInfo
General
Complete name : C:\Documents and Settings\Admin\Мои документы\Downloads\Les.Femmes.Du.6eme.Etage.2010.HDRip.1400MB.avi
Format : AVI
Format/Info : Audio Video Interleave
File size : 1.45 GiB
Duration : 1h 41mn
Overall bit rate : 2 038 Kbps
Writing application : VirtualDubMod 1.5.10.3 | www.virtualdub-fr.org || (build 2550/release)
Writing library : VirtualDubMod build 2550/release

Video
ID : 0
Format : MPEG-4 Visual
Format profile : Advanced Simple@L5
Format settings, BVOP : Yes
Format settings, QPel : No
Format settings, GMC : No warppoints
Format settings, Matrix : Custom
Codec ID : XVID
Codec ID/Hint : XviD
Duration : 1h 41mn
Bit rate : 1 644 Kbps
Width : 704 pixels
Height : 384 pixels
Display aspect ratio : 16:9
Frame rate : 25.000 fps
Resolution : 8 bits
Colorimetry : 4:2:0
Scan type : Progressive
Bits/(Pixel*Frame) : 0.243
Stream size : 1.17 GiB (81%)
Writing library : XviD 64

Audio
ID : 1a
Format : AC-3
Format/Info : Audio Coding 3
Codec ID : 2000
Duration : 1h 41mn
Bit rate mode : Constant
Bit rate : 384 Kbps
Channel(s) : 6 channels
Channel positions : Front: L C R, Surround: L R, LFE
Sampling rate : 48.0 KHz
Stream size : 280 MiB (19%)
Alignment : Split accross interleaves
Interleave, duration : 40 ms (1.00 video frame)
Interleave, preload duration : 500 ms
Скриншот c названием фильма
Скриншоты
загрузка...
Правила, инструкции, FAQ!!!
Торрент  Добавлен [19 апр 2014, 18:52] Скачать торрент
Скачать торрент
[ Размер 15.01 КБ / Просмотров 13 ]

Статус  
 
Размер  1.45 ГБ
Приватный: Нет (DHT включён)
.torrent скачан  0
Как залить торрент? | Как скачать Torrent? | Как смотреть и слушать онлайн?  


     Отправить личное сообщение
   
Страница 1 из 1
Показать сообщения за:  Поле сортировки  
Начать новую тему Ответить на тему

   Похожие торренты   Автор   Ответы   Просмотры   Последнее сообщение 
В этой теме нет новых непрочитанных сообщений. Скачать торрент Милый друг / Bel ami (Филипп Трибуа / Philippe Triboit) [2005, Франция, Бельгия, Драма, DVDRip]

в форуме Драмы, Мелодрамы, Размер: 746.13 МБ, Здоровье: 100%

Anonymous

0
7|2

32
0

24 апр 2014, 14:09

Anonymous Перейти к последнему сообщению

В этой теме нет новых непрочитанных сообщений. Скачать торрент Не волнуйся, у меня всё нормально / Je vais bien, ne t'en fais pas (Филипп Лиоре / Philippe Lioret) [2006, Франция, Драма, DVDRip-AVC]

в форуме Драмы, Мелодрамы, Размер: 1.45 ГБ, Здоровье: 0%

Anonymous

0
0|0

24
0

02 апр 2014, 08:24

Anonymous Перейти к последнему сообщению

В этой теме нет новых непрочитанных сообщений. Скачать торрент Итальянец / L'Italien (Оливье Барру / Olivier Baroux) [2010, Франция, Драма, комедия, HDRip] VO (М. Чадов)

в форуме Драмы, Мелодрамы, Размер: 1.47 ГБ, Здоровье: 0%

Anonymous

0
0|0

36
0

04 фев 2014, 21:26

Anonymous Перейти к последнему сообщению

В этой теме нет новых непрочитанных сообщений. Скачать торрент Любовь – это для двоих / Lamour, cest mieux a deux (Доминик Фарруджия / Dominique Farrugia, Арно Лемор / Arnaud Lemort) [2010, Франция, комедия, HDRip] MVO (лицензия)

в форуме Комедии, Размер: 1.45 ГБ, Здоровье: 0%

Anonymous

0
0|0

25
0

17 фев 2014, 11:47

Anonymous Перейти к последнему сообщению

В этой теме нет новых непрочитанных сообщений. Скачать торрент Путешествие / The Trip (Майкл Уинтерботтом / Michael Winterbottom) [2010, Великобритания, комедия, DVDRip] VO (zamez)

в форуме Комедии, Размер: 1.37 ГБ, Здоровье: 0%

Anonymous

0
0|0

42
0

17 май 2014, 20:08

Anonymous Перейти к последнему сообщению



Сейчас этот форум просматривают: нет зарегистрированных пользователей и гости: 1


Вы не можете начинать темы
Вы не можете отвечать на сообщения
Вы не можете редактировать свои сообщения
Вы не можете удалять свои сообщения
Вы не можете добавлять вложения

Перейти:  

!ВНИМАНИЕ!
 Ресурс не предоставляет электронные версии произведений, а занимается лишь коллекционированием и каталогизацией ссылок, присылаемых и публикуемых на форуме нашими читателями. Если вы являетесь правообладателем какого-либо представленного материала и не желаете чтобы ссылка на него находилась в нашем каталоге, свяжитесь с нами и мы незамедлительно удалим её. Файлы для обмена на трекере предоставлены пользователями сайта, и администрация не несёт ответственности за их содержание. Просьба не заливать файлы, защищенные авторскими правами, а также файлы нелегального содержания!