На всех торрентах на трекере установлена скидка на скачивание в размере 100 процентов(а).
 Возможность скачивания торрента НЕ зависит от ограничений при низком ратио, низком аплоаде, требуемом ратио или требуемом аплоаде.


Начать новую тему Ответить на тему
Статистика раздачи
Размер: 1.47 ГБ | Добавлен: 19 апр 2014, 18:50 | Скачали: 1
Сидеров: 0  [0 байт/сек]    Личеров: 2  [0 байт/сек]
Пред. тема | След. тема 

Автор
Сообщение

СообщениеДобавлено: 19 апр 2014, 18:50 

Дублер / La doublure / The Valet

Страна: Франция, Италия, Бельгия
Жанр: комедия
Год выпуска: 2006
Продолжительность: 01:25:27.130 (122928 frames)

Перевод: Профессиональный (дублированный)

Cубтитры: русские , английские - отдельно
Оригинальная аудиодорожка: французский

Режиссер: Франсис Вебер / Francis Veber

В ролях: Гад Элмале, Элис Тальони, Даниель Отой, Кристин Скотт Томас, Ришар Берри, Вирджиния Ледуайен, Дани Бон, Мишель Йонас, Мишель Омон, Лоран Гамелон

Описание: Пьер Левасер - один из самых богатых людей в мире. Но держатель контрольного пакета акций его компании - красавица-жена Кристина. Развод с ней равносилен краху. Это не мешает Пьеру содержать любовницу, длинноногую топ-модель Елену.
Однажды ловкие папарацци фотографируют его у дома подружки. Пьер обвиняет в связи с Еленой парковщика Пиньона. Адвокату остается лишь доказать, что Пиньон и Елена - любовники. И тут вмешивается Его величество, господин Случай...





СЭМПЛ-1
СЭМПЛ-2

Качество видео: BDRip(Исх. BluRay / HD Club)
Формат видео: AVI

Video: 720x304 (2.37:1), 23.976 fps, XviD MPEG-4 ~1609 kbps avg, 0.31 bit/pixel
Audio #1: 48 kHz, AC3 Dolby Digital, 3/2 (L,C,R,l,r) + LFE ch, ~448 kbps RUS
Audio #2: 48 kHz, AC3 Dolby Digital, 3/2 (L,C,R,l,r) + LFE ch, ~384 kbps FRE
Формат субтитров: softsub (SRT)
AviInfo
File: Dublior. chopper887.avi
Filesize: 1491.89 Mb ( 1 564 360 704 bytes )
Play length: 01:25:27.130 (122928 frames)
Subtitles: Rus (SubRip format)
Video: 720x304 (2.37:1), 23.976 fps, XviD MPEG-4 ~1609 kbps avg, 0.31 bit/pixel
Audio #1: 48 kHz, AC3 Dolby Digital, 3/2 (L,C,R,l,r) + LFE ch, ~448 kbps
Audio #2: 48 kHz, AC3 Dolby Digital, 3/2 (L,C,R,l,r) + LFE ch, ~384 kbps
MediaInfo
General
Complete name : F:\Dublior. chopper887\Dublior. chopper887.avi
Format : AVI
Format/Info : Audio Video Interleave
File size : 1.47 GiB
Duration : 1h 25mn
Overall bit rate : 2 457 Kbps
Writing application : VirtualDubMod 1.5.10.2 (build 2540/release)
Writing library : VirtualDubMod build 2540/release

Video
ID : 0
Format : MPEG-4 Visual
Format profile : Advanced Simple@L5
Format settings, BVOP : Yes
Format settings, QPel : No
Format settings, GMC : No warppoints
Format settings, Matrix : Custom
Muxing mode : Packed bitstream
Codec ID : XVID
Codec ID/Hint : XviD
Duration : 1h 25mn
Bit rate : 1 611 Kbps
Width : 720 pixels
Height : 304 pixels
Display aspect ratio : 2.35:1
Frame rate : 23.976 fps
Color space : YUV
Chroma subsampling : 4:2:0
Bit depth : 8 bits
Scan type : Progressive
Bits/(Pixel*Frame) : 0.307
Stream size : 984 MiB (66%)
Writing library : XviD 1.2.1 (UTC 2008-12-04)

Audio #1
ID : 1
Format : AC-3
Format/Info : Audio Coding 3
Mode extension : CM (complete main)
Codec ID : 2000
Duration : 1h 25mn
Bit rate mode : Constant
Bit rate : 448 Kbps
Channel(s) : 6 channels
Channel positions : Front: L C R, Side: L R, LFE
Sampling rate : 48.0 KHz
Stream size : 274 MiB (18%)
Alignment : Split accross interleaves
Interleave, duration : 42 ms (1.00 video frame)
Interleave, preload duration : 500 ms

Audio #2
ID : 2
Format : AC-3
Format/Info : Audio Coding 3
Mode extension : CM (complete main)
Codec ID : 2000
Duration : 1h 25mn
Bit rate mode : Constant
Bit rate : 384 Kbps
Channel(s) : 6 channels
Channel positions : Front: L C R, Side: L R, LFE
Sampling rate : 48.0 KHz
Stream size : 235 MiB (16%)
Alignment : Split accross interleaves
Interleave, duration : 42 ms (1.00 video frame)
Interleave, preload duration : 500 ms
Скриншоты
загрузка...
Правила, инструкции, FAQ!!!
Торрент  Добавлен [19 апр 2014, 18:50] Скачать торрент
Скачать торрент
[ Размер 15.29 КБ / Просмотров 12 ]

Статус  
 
Размер  1.47 ГБ
Приватный: Нет (DHT включён)
.torrent скачан  1
Как залить торрент? | Как скачать Torrent? | Как смотреть и слушать онлайн?  


     Отправить личное сообщение
   
Страница 1 из 1
Показать сообщения за:  Поле сортировки  
Начать новую тему Ответить на тему

   Похожие торренты   Автор   Ответы   Просмотры   Последнее сообщение 
В этой теме нет новых непрочитанных сообщений. Скачать торрент Проверен Беглецы / Les fugitifs (Франсис Вебер / Francis Veber) [1986, Франция, комедия, криминал, BDRip, 480p] DUB, Original + sub (rus)

в форуме Фильмы для iPod, iPhone, iPad, Размер: 1.29 ГБ, Здоровье: 100%

Гость

0
9|3

35
0

11 май 2015, 01:40

Гость Перейти к последнему сообщению

В этой теме нет новых непрочитанных сообщений. Скачать торрент Хамелеон / Шкаф / Le Placard / The Closet (Франсис Вебер / Francis Veber) [2001, Франция, комедия, BDRip-AVC] DVO + AVO (Ю. Сербин) + 2xSub (Rus, Eng)

в форуме Комедии, Размер: 744.89 МБ, Здоровье: 100%

Anonymous

0
6|2

64
2

29 апр 2014, 13:56

Anonymous Перейти к последнему сообщению

В этой теме нет новых непрочитанных сообщений. Скачать торрент Проверен [iPad] Невезучие / Tais-toi! (Франсис Вебер / Francis Veber) [2003, комедия, криминал, BDRip, 720p]

в форуме Фильмы для iPod, iPhone, iPad, Размер: 2.3 ГБ, Здоровье: 100%

Гость

0
11|5

35
2

14 май 2015, 00:23

Гость Перейти к последнему сообщению

В этой теме нет новых непрочитанных сообщений. Скачать торрент Невезучие / Tais-toi! (Франсис Вебер / Francis Veber) [2003, Комедия, криминал, BDRip] Dub + Original + Subs (Rus, Eng)

в форуме Комедии, Размер: 1.73 ГБ, Здоровье: 0%

Anonymous

0
0|0

57
0

22 апр 2014, 11:50

Anonymous Перейти к последнему сообщению

В этой теме нет новых непрочитанных сообщений. Скачать торрент Невезучие / Tais-toi! (Франсис Вебер /Francis Veber) [2003 г., Комедия, DVDRip]

в форуме Комедии, Размер: 1.37 ГБ, Здоровье: 0%

Anonymous

0
0|0

48
0

25 апр 2014, 08:55

Anonymous Перейти к последнему сообщению



Сейчас этот форум просматривают: нет зарегистрированных пользователей и гости: 1


Вы не можете начинать темы
Вы не можете отвечать на сообщения
Вы не можете редактировать свои сообщения
Вы не можете удалять свои сообщения
Вы не можете добавлять вложения

Перейти:  

!ВНИМАНИЕ!
 Ресурс не предоставляет электронные версии произведений, а занимается лишь коллекционированием и каталогизацией ссылок, присылаемых и публикуемых на форуме нашими читателями. Если вы являетесь правообладателем какого-либо представленного материала и не желаете чтобы ссылка на него находилась в нашем каталоге, свяжитесь с нами и мы незамедлительно удалим её. Файлы для обмена на трекере предоставлены пользователями сайта, и администрация не несёт ответственности за их содержание. Просьба не заливать файлы, защищенные авторскими правами, а также файлы нелегального содержания!