На всех торрентах на трекере установлена скидка на скачивание в размере 100 процентов(а).
 Возможность скачивания торрента НЕ зависит от ограничений при низком ратио, низком аплоаде, требуемом ратио или требуемом аплоаде.


Начать новую тему Ответить на тему
Статистика раздачи
Размер: 2.52 ГБ | Добавлен: 14 апр 2014, 09:28 | Скачали: 0
Сидеров: 0  [0 байт/сек]    Личеров: 0  [0 байт/сек]
Пред. тема | След. тема 

Автор
Сообщение

СообщениеДобавлено: 14 апр 2014, 09:28 

Год выпуска: 2010
Страна: Франция
Жанр: комедия
Продолжительность: 01:48:19
Перевод: Профессиональный (полное дублирование)
Субтитры: русские украинские английские французские

Режиссер: Дэни Бун / Dany Boon



В ролях: Бенуа Пульворд (Ruben Vandevoorde), Дэни Бун (Mathias Ducatel), Джули Бернард (Louise Vandevoorde), Карин Виар (Irиne Janus), Франсуа Дамиенс (Jacques Janus), Боли Ланнерс (Bruno Vanuxem), Оливье Гурме (Le prкtre de Chimay), Мишель Вюйермоз (Le divisionnaire Mercier), Christel Pedrinelli (Olivia Vandevoorde), Joachim Ledeganck (Lйopold Vandevoorde), Филипп Маньян (Le divisionnaire Mercier), Jean-Paul Dermont (Le pиre Vandevoorde)



Описание: История двух недотеп-таможенников, француза и бельгийца. Не испытывая особой приязни друг к другу, они, тем не менее, вынуждены стать напарниками и принимать участие в рискованной операции...



Качество: BDRip-AVC
Формат: MKV
Видео: AVC at 2 500 Kbps 996 x 420 (2.371) at 24.000 fps
Аудио:
#1: 48 kHz, AC3 Dolby Digital, 3/2 (L,C,R,l,r) LFE ch, ~384.00 kbps avg RUS

Субтитры: srt
Главы: есть (19шт)


Log x264
x264 [info]: frame I:1598 Avg QP:18.24 size: 75945
x264 [info]: frame P:34560 Avg QP:20.71 size: 24582
x264 [info]: frame B:119817 Avg QP:22.07 size: 8849
x264 [info]: consecutive B-frames: 2.1% 1.7% 7.1% 28.6% 23.0% 32.8% 3.3% 1.0% 0.3% 0.1% 0.0% 0.0%
x264 [info]: mb I I16..4: 16.1% 55.2% 28.7%
x264 [info]: mb P I16..4: 0.5% 9.9% 3.0% P16..4: 32.1% 39.5% 14.0% 0.0% 0.0% skip: 1.0%
x264 [info]: mb B I16..4: 0.1% 1.1% 0.6% B16..8: 38.7% 22.4% 3.9% direct: 6.3% skip:27.0% L0:38.9% L1:44.6% BI:16.5%
x264 [info]: 8x8 transform intra:67.7% inter:53.8%
x264 [info]: direct mvs spatial:98.6% temporal:1.4%
x264 [info]: coded y,uvDC,uvAC intra: 89.1% 88.6% 68.4% inter: 31.4% 21.1% 9.4%
x264 [info]: i16 v,h,dc,p: 8% 10% 30% 52%
x264 [info]: i8 v,h,dc,ddl,ddr,vr,hd,vl,hu: 13% 10% 9% 9% 12% 12% 12% 11% 12%
x264 [info]: i4 v,h,dc,ddl,ddr,vr,hd,vl,hu: 33% 16% 5% 6% 8% 8% 8% 7% 8%
x264 [info]: i8c dc,h,v,p: 36% 26% 21% 16%
x264 [info]: Weighted P-Frames: Y:2.1% UV:0.6%
x264 [info]: ref P L0: 43.9% 12.3% 20.3% 6.1% 6.4% 4.1% 4.2% 2.4% 0.3% 0.0%
x264 [info]: ref B L0: 79.9% 10.2% 4.1% 2.4% 1.9% 1.0% 0.5%
x264 [info]: ref B L1: 95.2% 4.8%
x264 [info]: kb/s:2500.25
MI
Format : Matroska
File size : 2.18 GiB
Duration : 1h 48mn
Overall bit rate : 2 886 Kbps
Encoded date : UTC 2011-10-30 11:16:57
Writing application : mkvmerge v4.5.0 ('Speed of Light') built on Feb 1 2011 02:10:32
Writing library : libebml v1.2.0 libmatroska v1.1.0

Video
ID : 3
Format : AVC
Format/Info : Advanced Video Codec
Format profile : High@L4.0
Format settings, CABAC : Yes
Format settings, ReFrames : 8 frames
Muxing mode : Container profile=Unknown@4.0
Codec ID : V_MPEG4/ISO/AVC
Duration : 1h 48mn
Bit rate : 2 445 Kbps
Nominal bit rate : 2 500 Kbps
Width : 996 pixels
Height : 420 pixels
Display aspect ratio : 2.35:1
Frame rate : 24.000 fps
Resolution : 24 bits
Colorimetry : 4:2:0
Scan type : Progressive
Bits/(Pixel*Frame) : 0.244
Stream size : 1.85 GiB (85%)
Writing library : x264 core 116 r2074kMod 2641b9e
Encoding settings : cabac=1 / ref=8 / deblock=1:-3:-3 / analyse=0x3:0x113 / me=umh / subme=11 / psy=1 / fade_compensate=0.00 / psy_rd=1.05:0.15 / mixed_ref=1 / me_range=32 / chroma_me=1 / trellis=2 / 8x8dct=1 / cqm=0 / deadzone=21,11 / fast_pskip=0 / chroma_qp_offset=-3 / threads=3 / sliced_threads=0 / nr=0 / decimate=0 / interlaced=0 / bluray_compat=0 / constrained_intra=0 / bframes=11 / b_pyramid=2 / b_adapt=2 / b_bias=0 / direct=3 / weightb=1 / open_gop=0 / weightp=2 / keyint=250 / keyint_min=24 / scenecut=40 / intra_refresh=0 / rc_lookahead=60 / rc=2pass / mbtree=0 / bitrate=2500 / ratetol=1.0 / qcomp=0.60 / qpmin=0 / qpmax=69 / qpstep=4 / cplxblur=20.0 / qblur=0.5 / vbv_maxrate=20000 / vbv_bufsize=25000 / nal_hrd=none / ip_ratio=1.40 / pb_ratio=1.30 / aq=1:0.85
Matrix coefficients : BT.709-5, BT.1361, IEC 61966-2-4 709, SMPTE RP177

Audio
ID : 1
Format : AC-3
Format/Info : Audio Coding 3
Codec ID : A_AC3
Duration : 1h 48mn
Bit rate mode : Constant
Bit rate : 384 Kbps
Channel(s) : 6 channels
Channel positions : Front: L C R, Surround: L R, LFE
Sampling rate : 48.0 KHz
Stream size : 298 MiB (13%)
Title : Русский
Language : Russian

Text #1
ID : 2
Format : UTF-8
Codec ID : S_TEXT/UTF8
Codec ID/Info : UTF-8 Plain Text
Title : Русские
Language : Russian

Text #2
ID : 4
Format : UTF-8
Codec ID : S_TEXT/UTF8
Codec ID/Info : UTF-8 Plain Text
Title : Английские

Text #3
ID : 5
Format : UTF-8
Codec ID : S_TEXT/UTF8
Codec ID/Info : UTF-8 Plain Text
Title : Украинские
Language : Ukrainian

Text #4
ID : 6
Format : UTF-8
Codec ID : S_TEXT/UTF8
Codec ID/Info : UTF-8 Plain Text
Title : Французские
Language : French

Menu
00:00:00.000 : :00:00:00.000
00:07:50.875 : :00:07:50.875
00:13:31.833 : :00:13:31.833
00:18:21.125 : :00:18:21.125
00:25:39.375 : :00:25:39.375
00:30:17.375 : :00:30:17.375
00:37:58.292 : :00:37:58.292
00:43:45.375 : :00:43:45.375
00:48:01.333 : :00:48:01.333
00:54:16.750 : :00:54:16.750
00:59:57.542 : :00:59:57.542
01:04:01.083 : :01:04:01.083
01:10:19.583 : :01:10:19.583
01:16:03.750 : :01:16:03.750
01:20:25.250 : :01:20:25.250
01:28:02.333 : :01:28:02.333
01:34:12.583 : :01:34:12.583
01:39:12.667 : :01:39:12.667
01:44:11.917 : :01:44:11.917
загрузка...
Правила, инструкции, FAQ!!!
Торрент  Добавлен [14 апр 2014, 09:28] Скачать торрент
Скачать торрент
[ Размер 13.27 КБ / Просмотров 5 ]

Статус  
 
Размер  2.52 ГБ
Приватный: Нет (DHT включён)
.torrent скачан  0
Как залить торрент? | Как скачать Torrent? | Как смотреть и слушать онлайн?  


     Отправить личное сообщение
   
Страница 1 из 1
Показать сообщения за:  Поле сортировки  
Начать новую тему Ответить на тему

   Похожие торренты   Автор   Ответы   Просмотры   Последнее сообщение 
В этой теме нет новых непрочитанных сообщений. Скачать торрент Проверен [iPad] Добро пожаловать на юг / Benvenuti al sud (Лука Миньеро / Luca Miniero ) [2010, Италия, Германия, комедия, BDRip, SD (576p)] DUB + Original + sub (eng)

в форуме Фильмы для iPod, iPhone, iPad, Размер: 1.86 ГБ, Здоровье: 100%

Гость

0
11|4

105
0

12 май 2015, 00:07

Гость Перейти к последнему сообщению

В этой теме нет новых непрочитанных сообщений. Скачать торрент Санта на продажу / Rare Exports (Ялмари Хеландер / Jalmari Helander) [2010, Швеция, Финляндия, Франция, Норвегия, фэнтези, боевик, комедия, BDRip-AVC] Dub

в форуме Фантастика, Фэнтези, Размер: 789.62 МБ, Здоровье: 100%

Anonymous

0
9|3

44
1

03 апр 2014, 12:44

Anonymous Перейти к последнему сообщению

В этой теме нет новых непрочитанных сообщений. Скачать торрент Анонимные романтики / Les émotifs anonymes (Жан-Пьерр Амери / Jean-Pierre Améris) [2010, Франция, Бельгия, мелодрама, комедия, BDRip] MVO + Original (Fre) + Subs (rus,fre)

в форуме Драмы, Мелодрамы, Размер: 1.45 ГБ, Здоровье: 0%

Anonymous

0
0|0

31
0

16 фев 2014, 13:06

Anonymous Перейти к последнему сообщению

В этой теме нет новых непрочитанных сообщений. Скачать торрент ЭкстраМен / Сопровождение / The Extra Man (Шари Спрингер Берман / Shari Springer Berman, Роберт Пульчини / Robert Pulcini) [2010, США, Франция, драма, комедия, BDRip]

в форуме Драмы, Мелодрамы, Размер: 1.46 ГБ, Здоровье: 100%

Anonymous

0
5|2

31
0

01 апр 2014, 09:37

Anonymous Перейти к последнему сообщению

В этой теме нет новых непрочитанных сообщений. Скачать торрент Проверен Добро пожаловать, или Посторонним вход воспрещён (Элем Климов) [1964, СССР, комедия, BDRip 1080p]

в форуме Наше кино (HD Video), Размер: 9.91 ГБ, Здоровье: 100%

Anonymous

0
57|20

40
5

12 апр 2015, 15:05

Anonymous Перейти к последнему сообщению



Сейчас этот форум просматривают: нет зарегистрированных пользователей и гости: 2


Вы не можете начинать темы
Вы не можете отвечать на сообщения
Вы не можете редактировать свои сообщения
Вы не можете удалять свои сообщения
Вы не можете добавлять вложения

Перейти:  

!ВНИМАНИЕ!
 Ресурс не предоставляет электронные версии произведений, а занимается лишь коллекционированием и каталогизацией ссылок, присылаемых и публикуемых на форуме нашими читателями. Если вы являетесь правообладателем какого-либо представленного материала и не желаете чтобы ссылка на него находилась в нашем каталоге, свяжитесь с нами и мы незамедлительно удалим её. Файлы для обмена на трекере предоставлены пользователями сайта, и администрация не несёт ответственности за их содержание. Просьба не заливать файлы, защищенные авторскими правами, а также файлы нелегального содержания!