На всех торрентах на трекере установлена скидка на скачивание в размере 100 процентов(а).
 Возможность скачивания торрента НЕ зависит от ограничений при низком ратио, низком аплоаде, требуемом ратио или требуемом аплоаде.


Начать новую тему Ответить на тему
Статистика раздачи
Размер: 1.42 ГБ | Добавлен: 14 апр 2014, 09:28 | Скачали: 1
Сидеров: 3  [0 байт/сек]    Личеров: 0  [0 байт/сек]
Пред. тема | След. тема 

Автор
Сообщение

СообщениеДобавлено: 14 апр 2014, 09:28 

Влюблен до беспамятства / Tombé sur la tête

Страна: Франция, Швейцария
Жанр: Комедия
Год выпуска: 2010
Продолжительность: 01:26:27

Перевод: Профессиональный (многоголосый закадровый) ТПО "Ред Медиа"
Cубтитры: нет
Режиссер: Дидье Альбер / Didier Albert

В ролях: Мишель Бернье, Бруно Мадиньер, Лилу Фогли

Описание: Высокомерный и безжалостный бизнесмен Томас катался на велосипеде в лесу и неожиданно столкнулся с проезжающим мимо автомобилем, за рулем которого была Матильда, чувствительная и доверчивая женщина. От удара Томас полностью потерял память. Очарованная его обаянием, Матильда всеми силами старается помочь ему вспомнить, кем он был. Но готова ли она выяснить, кто он на самом деле?



Качество видео: SATRip
Формат видео: AVI

Видео: 688x368 (1.87:1), 25 fps, XviD build 47 ~2156 kbps avg, 0.34 bit/pixel
Аудио: 48 kHz, AC3 Dolby Digital, 2/0 (L,R) ch, ~192 kbps
MediaInfo
Влюблен до беспамятства - Tombé sur la tête [by alenavova].avi
Format : AVI
Format/Info : Audio Video Interleave
File size : 1.42 GiB
Duration : 1h 26mn
Overall bit rate : 2 359 Kbps
Movie name : Влюблен до беспамятства - Tombe sur la tete [by alenavova]
Director : Rip by alenavova
Writing application : VirtualDubModRus 1.5.10.2 (build 2542/release)
Copyright : Edich2
Comment : RuTracker.org

Video
ID : 0
Format : MPEG-4 Visual
Format profile : Advanced Simple@L5
Format settings, BVOP : 1
Format settings, QPel : No
Format settings, GMC : No warppoints
Format settings, Matrix : Default (MPEG)
Codec ID : XVID
Codec ID/Hint : XviD
Duration : 1h 26mn
Bit rate : 2 157 Kbps
Width : 688 pixels
Height : 368 pixels
Display aspect ratio : 1.85:1
Frame rate : 25.000 fps
Color space : YUV
Chroma subsampling : 4:2:0
Bit depth : 8 bits
Scan type : Progressive
Compression mode : Lossy
Bits/(Pixel*Frame) : 0.341
Stream size : 1.30 GiB (91%)
Writing library : XviD 1.2.0.dev47 (UTC 2006-11-01)

Audio
ID : 1
Format : AC-3
Format/Info : Audio Coding 3
Mode extension : CM (complete main)
Format settings, Endianness : Big
Codec ID : 2000
Duration : 1h 26mn
Bit rate mode : Constant
Bit rate : 192 Kbps
Channel count : 2 channels
Channel positions : Front: L R
Sampling rate : 48.0 KHz
Bit depth : 16 bits
Compression mode : Lossy
Stream size : 119 MiB (8%)
Alignment : Split accross interleaves
Interleave, duration : 40 ms (1.00 video frame)
Interleave, preload duration : 500 ms



загрузка...
Правила, инструкции, FAQ!!!
Торрент  Добавлен [14 апр 2014, 09:28] Скачать торрент
Скачать торрент
[ Размер 14.79 КБ / Просмотров 13 ]

Статус  
 
Размер  1.42 ГБ
Приватный: Нет (DHT включён)
.torrent скачан  1
Как залить торрент? | Как скачать Torrent? | Как смотреть и слушать онлайн?  


     Отправить личное сообщение
   
Страница 1 из 1
Показать сообщения за:  Поле сортировки  
Начать новую тему Ответить на тему

   Похожие торренты   Автор   Ответы   Просмотры   Последнее сообщение 
В этой теме нет новых непрочитанных сообщений. Скачать торрент Бамбу / Bambou (Дидье Бурдон / Didier Bourdon) [2009, Франция, комедия, DVDRip]

в форуме Комедии, Размер: 1.46 ГБ, Здоровье: 0%

Anonymous

0
0|0

21
0

02 апр 2014, 12:08

Anonymous Перейти к последнему сообщению

В этой теме нет новых непрочитанных сообщений. Скачать торрент Вместе - это слишком / Ensemble, c'est trop (Леа Фазер / Lea Fazer) [2010, Франция, комедия, SATRip]

в форуме Комедии, Размер: 1.37 ГБ, Здоровье: 0%

Anonymous

0
0|0

25
0

17 фев 2014, 11:44

Anonymous Перейти к последнему сообщению

В этой теме нет новых непрочитанных сообщений. Скачать торрент Завтра я выхожу замуж / Demain je me marie (Винсент Джованни / Vincent Giovanni) [2010, Франция, Комедия, SATRip] MVO

в форуме Комедии, Размер: 1.4 ГБ, Здоровье: 100%

Anonymous

0
9|1

80
3

14 фев 2014, 07:45

Anonymous Перейти к последнему сообщению

В этой теме нет новых непрочитанных сообщений. Скачать торрент Проверен Albert Camus / Альбер Камю - L'Étranger / Незнакомец, перевод Г.В. Адамовича [1966, PDF, RUS]

в форуме Зарубежная литература (XX и XXI век), Размер: 2.78 МБ, Здоровье: ???%

Anonymous

0
0|1

12
0

08 сен 2016, 19:26

Anonymous Перейти к последнему сообщению

В этой теме нет новых непрочитанных сообщений. Скачать торрент Проверен Жил-был Человек / Il Etait Une Fois... l'homme / Серии 0-26 (26) (Альбер Барилье / Albert Barillé) [1978, Мультипликационный, фантастика, DVDRip] ДУБЛ

в форуме Обучающие издания для детей, Размер: 11.03 ГБ, Здоровье: 100%

Гость

0
56|20

40
1

28 янв 2015, 00:06

Гость Перейти к последнему сообщению



Сейчас этот форум просматривают: нет зарегистрированных пользователей и гости: 1


Вы не можете начинать темы
Вы не можете отвечать на сообщения
Вы не можете редактировать свои сообщения
Вы не можете удалять свои сообщения
Вы не можете добавлять вложения

Перейти:  

!ВНИМАНИЕ!
 Ресурс не предоставляет электронные версии произведений, а занимается лишь коллекционированием и каталогизацией ссылок, присылаемых и публикуемых на форуме нашими читателями. Если вы являетесь правообладателем какого-либо представленного материала и не желаете чтобы ссылка на него находилась в нашем каталоге, свяжитесь с нами и мы незамедлительно удалим её. Файлы для обмена на трекере предоставлены пользователями сайта, и администрация не несёт ответственности за их содержание. Просьба не заливать файлы, защищенные авторскими правами, а также файлы нелегального содержания!