На всех торрентах на трекере установлена скидка на скачивание в размере 100 процентов(а).
 Возможность скачивания торрента НЕ зависит от ограничений при низком ратио, низком аплоаде, требуемом ратио или требуемом аплоаде.


Начать новую тему Ответить на тему
Статистика раздачи
Размер: 1.46 ГБ | Добавлен: 14 апр 2014, 09:26 | Скачали: 0
Сидеров: 23  [0 байт/сек]    Личеров: 8  [0 байт/сек]
Пред. тема | След. тема 

Автор
Сообщение

СообщениеДобавлено: 14 апр 2014, 09:26 

Похмелье / Мальчишник в Вегасе / The Hangover [UNRATED]


Год выпуска: 2009
Страна: США
Жанр: Комедия
Продолжительность: 1:47:53
Перевод: Авторский (Одноголосый), Антон Карповский
Cубтитры: нет

Режиссер: Тодд Филлипс / Todd Phillips

В ролях: Брэдли Купер /Bradley Cooper/, Эд Хелмс /Ed Helms/, Зак Галифианакис /Zach Galifianakis/, Джастин Барта /Justin Bartha/, Хэзер Грэм /Heather Graham/, Джеффри Тэмбор /Jeffrey Tambor/

Описание: Они мечтали устроить незабываемый мальчишник в Вегасе. Но теперь им действительно необходимо вспомнить, что именно происходило! Чей ребенок сидит в шкафу шикарного номера отеля? Как в ванную попал тигр? Почему у одного из них нет зуба? И, самое главное, куда делся жених?
То, что парни вытворяли на вечеринке, не идет ни в какое сравнение с тем, что им придется сделать на трезвую голову, когда они будут шаг за шагом восстанавливать события прошлой ночи, каждый раз — новая зацепка.

Качество видео: HDRip
Формат видео: AVI
Видео кодек: XviD
Аудио кодек: AC3
Видео: 720x304, 23,976 fps, 1476 kbps
Аудио: 48000Hz, DD 5.1, 448 kbps

Скачать: SAMPLE 24.10MB

MediaInfo
Формат : AVI
Формат/Информация : Audio Video Interleave
Размер файла : 1,46 Гбайт
Продолжительность : 1 ч. 47 м.
Общий поток : 1933 Кбит/сек
Программа кодирования : VirtualDubMod 1.5.4.1 (build 2178/release)
Библиотека кодирования : VirtualDubMod build 2178/release

Видео
Идентификатор : 0
Формат : MPEG-4 Visual
Профиль формата : Advanced Simple@L5
Параметр BVOP формата : 1
Параметр QPel формата : Нет
Параметр GMC формата : Без точки перехода
Параметр матрицы формата : Выборочная
Идентификатор кодека : XVID
Идентификатор кодека/Подсказка : XviD
Продолжительность : 1 ч. 47 м.
Битрейт : 1476 Кбит/сек
Ширина : 720 пикселей
Высота : 304 пикселя
Соотношение сторон : 2,35:1
Частота кадров : 23,976 кадра/сек
Цветовое пространство : YUV
Субдискретизация насыщенности : 4:2:0
Битовая глубина : 8 бит
Тип развёртки : Прогрессивная
Метод сжатия : С потерями
Бит/(Пиксели*Кадры) : 0.281
Размер потока : 1,11 Гбайт (76%)
Библиотека кодирования : XviD 63

Аудио
Идентификатор : 1
Формат : AC-3
Формат/Информация : Audio Coding 3
Расширение режима : CM (complete main)
Параметр Endianness формата : Big
Идентификатор кодека : 2000
Продолжительность : 1 ч. 47 м.
Вид битрейта : Постоянный
Битрейт : 448 Кбит/сек
Каналы : 6 каналов
Расположение каналов : Front: L C R, Side: L R, LFE
Частота : 48,0 КГц
Битовая глубина : 16 бит
Метод сжатия : С потерями
Размер потока : 346 Мбайт (23%)
Выравнивание : Разделение по промежуткам
Продолжительность промежутка : 42 мс. (1,00 видеокадр)
Время предзагрузки промежутка : 500 мс.
Скриншоты
загрузка...
Правила, инструкции, FAQ!!!
Торрент  Добавлен [14 апр 2014, 09:26] Скачать торрент
Скачать торрент
[ Размер 15.06 КБ / Просмотров 8 ]

Статус  
 
Размер  1.46 ГБ
Приватный: Нет (DHT включён)
.torrent скачан  0
Как залить торрент? | Как скачать Torrent? | Как смотреть и слушать онлайн?  


     Отправить личное сообщение
   
Страница 1 из 1
Показать сообщения за:  Поле сортировки  
Начать новую тему Ответить на тему

   Похожие торренты   Автор   Ответы   Просмотры   Последнее сообщение 
В этой теме нет новых непрочитанных сообщений. Скачать торрент Проверен [iPad] Мальчишник 2: Из Вегаса в Бангкок / The Hangover Part II (Тодд Филлипс / Todd Phillips ) [2011, США, Комедия, BDRip, SD (576p)] DUB + Original + sub (rus, eng)

в форуме Фильмы для iPod, iPhone, iPad, Размер: 1.75 ГБ, Здоровье: 100%

Гость

0
42|14

47
1

13 май 2015, 23:58

Гость Перейти к последнему сообщению

В этой теме нет новых непрочитанных сообщений. Скачать торрент Впритык / Due Date (Тодд Филлипс / Todd Phillips) [2010, США, Комедия, HDRip] Dub

в форуме Комедии, Размер: 744.41 МБ, Здоровье: 0%

Anonymous

0
0|0

29
0

01 апр 2014, 09:36

Anonymous Перейти к последнему сообщению

В этой теме нет новых непрочитанных сообщений. Скачать торрент Проверен [iPhone] Впритык / Due Date (Тодд Филлипс / Todd Phillips) [2010, драма, комедия, BDRip, 720х320] Rus, Ukr, Eng + Subs (Rus, Ukr, Eng)

в форуме Фильмы для iPod, iPhone, iPad, Размер: 1.06 ГБ, Здоровье: 100%

Гость

0
12|4

27
0

14 май 2015, 00:01

Гость Перейти к последнему сообщению

В этой теме нет новых непрочитанных сообщений. Скачать торрент Бэндслэм / Bandslam (Тодд Графф / Todd Graff) [2009, США, мелодрама, комедия, BDRip] MVO (R5)

в форуме Драмы, Мелодрамы, Размер: 1.46 ГБ, Здоровье: 0%

Anonymous

0
0|0

40
0

06 фев 2014, 11:42

Anonymous Перейти к последнему сообщению

В этой теме нет новых непрочитанных сообщений. Скачать торрент Проверен Мальчишник: Трилогия / The Hangover 1,2,3 (2009-2013) BDRip

в форуме Трилогии, Размер: 7.15 ГБ, Здоровье: 100%

Anonymous

0
29|7

211
12

15 июл 2014, 06:41

Anonymous Перейти к последнему сообщению



Сейчас этот форум просматривают: нет зарегистрированных пользователей и гости: 1


Вы не можете начинать темы
Вы не можете отвечать на сообщения
Вы не можете редактировать свои сообщения
Вы не можете удалять свои сообщения
Вы не можете добавлять вложения

Перейти:  

!ВНИМАНИЕ!
 Ресурс не предоставляет электронные версии произведений, а занимается лишь коллекционированием и каталогизацией ссылок, присылаемых и публикуемых на форуме нашими читателями. Если вы являетесь правообладателем какого-либо представленного материала и не желаете чтобы ссылка на него находилась в нашем каталоге, свяжитесь с нами и мы незамедлительно удалим её. Файлы для обмена на трекере предоставлены пользователями сайта, и администрация не несёт ответственности за их содержание. Просьба не заливать файлы, защищенные авторскими правами, а также файлы нелегального содержания!