На всех торрентах на трекере установлена скидка на скачивание в размере 100 процентов(а).
 Возможность скачивания торрента НЕ зависит от ограничений при низком ратио, низком аплоаде, требуемом ратио или требуемом аплоаде.


Начать новую тему Ответить на тему
Статистика раздачи
Размер: 2.91 ГБ | Добавлен: 02 апр 2014, 12:06 | Скачали: 0
Сидеров: 0  [0 байт/сек]    Личеров: 0  [0 байт/сек]
Пред. тема | След. тема 

Автор
Сообщение

СообщениеДобавлено: 02 апр 2014, 12:06 


Страна: США
Жанр: комедия, фэнтази
Год выпуска: 2008
Продолжительность: 1:39:15

Перевод 1: Профессиональный (дублированный)
Перевод 2: Профессиональный (многоголосый закадровый) Киномания
Cубтитры: русские (надписи), русские полные, английские
Оригинальная аудиодорожка: английский

Режиссер: Адам Шенкман / Adam Shankman
В ролях: Адам Сэндлер (Skeeter Bronson), Кери Рассел (Jill), Гай Пирс (Kendall), Расселл Брэнд (Mickey), Ричард Гриффитс (Barry Nottingham), Тереза Палмер (Violet Nottingham), Люси Лоулесс (Aspen), Кортни Кокс (Wendy), Джонатан Морган Хейт (Patrick), Лаура Энн Кеслинг (Bobbi), Джонатан Прайс (Marty Bronson), Ник Свардсон (Engineer)

Описание: В жизни главного героя Скитера Бронсона никогда не случалось ничего удивительного. Но однажды сестра попросила его присмотреть за двумя очаровательными и неугомонными племянниками и одной симпатичной морской свинкой по имени Плаксик. Все трое привыкли засыпать под мамины сказки, и Скитеру пришлось каждый вечер придумывать невероятные истории для своей веселой семейки. И вдруг происходит чудо: события сказки, рассказанной детям на ночь, начали сбываться на следующий день в жизни самого Скитера!





Качество видео: BDRip-AVC
Формат: Matroska (MKV)
Видео кодек: AVC/H.264 (x264)
Аудио кодек: AC3
Видео: AVC; 1016x432 @ 23.976fps; ~2849Kbps
Аудио 1: AC3; 6Ch; 48KHz; 16Bit; 448Kbps |Дубляж, BD|
Аудио 2: AC3; 6Ch; 48KHz; 16Bit; 448Kbps |Многоголосый закадровый, Киномания|
Аудио 3: AC3; 6Ch; 48KHz; 16Bit; 448Kbps |Original| English
Субтитры 1: UTF-8; SRT - Русские (Форсированые)
Субтитры 2: UTF-8; SRT - Русские
Субтитры 3: UTF-8; SRT - Английские
-> SAMPLE <-
MI
Format : Matroska
File size : 2.91 GiB
Duration : 1h 39mn
Overall bit rate : 4 195 Kbps
Movie name : Сказки на ночь / Bedtime Stories (2008) [Адам Шенкман / Adam Shankman] BDRip by bumbarelo@tRuAVC
Encoded date : UTC 2011-05-30 18:34:57
Writing application : mkvmerge v4.8.0 ('I Got The...') built on May 24 2011 03:12:58
Writing library : libebml v1.2.0 + libmatroska v1.1.0
Cover : Yes / Yes

Video
ID : 1
Format : AVC
Format/Info : Advanced Video Codec
Format profile : High@L3.1
Format settings, CABAC : Yes
Format settings, ReFrames : 10 frames
Codec ID : V_MPEG4/ISO/AVC
Duration : 1h 39mn
Bit rate : 2 850 Kbps
Width : 1 016 pixels
Height : 432 pixels
Display aspect ratio : 2.35:1
Frame rate : 23.976 fps
Color space : YUV
Chroma subsampling : 4:2:0
Bit depth : 8 bits
Scan type : Progressive
Bits/(Pixel*Frame) : 0.271
Stream size : 1.92 GiB (66%)
Title : AVC; 1016x432 @ 23.976fps; ~2849Kbps
Writing library : x264 core 115 r1995kMod c1e60b9
Encoding settings : cabac=1 / ref=10 / deblock=1:-2:-2 / analyse=0x3:0x133 / me=umh / subme=10 / psy=1 / fade_compensate=0.00 / psy_rd=1.00:0.15 / mixed_ref=1 / me_range=48 / chroma_me=1 / trellis=2 / 8x8dct=1 / cqm=0 / deadzone=21,11 / fast_pskip=0 / chroma_qp_offset=-3 / threads=6 / sliced_threads=0 / nr=0 / decimate=0 / interlaced=0 / bluray_compat=0 / constrained_intra=0 / bframes=8 / b_pyramid=2 / b_adapt=2 / b_bias=0 / direct=3 / weightb=1 / open_gop=0 / weightp=2 / keyint=250 / keyint_min=23 / scenecut=40 / intra_refresh=0 / rc_lookahead=100 / rc=2pass / mbtree=1 / bitrate=2850 / ratetol=1.0 / qcomp=0.76 / qpmin=0 / qpmax=69 / qpstep=4 / cplxblur=20.0 / qblur=0.5 / ip_ratio=1.40 / aq=2:1.00
Language : English
Color primaries : BT.709-5, BT.1361, IEC 61966-2-4, SMPTE RP177
Transfer characteristics : BT.709-5, BT.1361
Matrix coefficients : BT.709-5, BT.1361, IEC 61966-2-4 709, SMPTE RP177

Audio #1
ID : 2
Format : AC-3
Format/Info : Audio Coding 3
Mode extension : CM (complete main)
Codec ID : A_AC3
Duration : 1h 39mn
Bit rate mode : Constant
Bit rate : 448 Kbps
Channel(s) : 6 channels
Channel positions : Front: L C R, Side: L R, LFE
Sampling rate : 48.0 KHz
Bit depth : 16 bits
Compression mode : Lossy
Stream size : 318 MiB (11%)
Title : AC3; 6Ch; 48KHz; 16Bit; 448Kbps (Dubbing)
Language : Russian

Audio #2
ID : 3
Format : AC-3
Format/Info : Audio Coding 3
Mode extension : CM (complete main)
Codec ID : A_AC3
Duration : 1h 39mn
Bit rate mode : Constant
Bit rate : 448 Kbps
Channel(s) : 6 channels
Channel positions : Front: L C R, Side: L R, LFE
Sampling rate : 48.0 KHz
Bit depth : 16 bits
Compression mode : Lossy
Stream size : 318 MiB (11%)
Title : AC3; 6Ch; 48KHz; 16Bit; 448Kbps (MVO Kinomania)
Language : Russian

Audio #3
ID : 4
Format : AC-3
Format/Info : Audio Coding 3
Mode extension : CM (complete main)
Codec ID : A_AC3
Duration : 1h 39mn
Bit rate mode : Constant
Bit rate : 448 Kbps
Channel(s) : 6 channels
Channel positions : Front: L C R, Side: L R, LFE
Sampling rate : 48.0 KHz
Bit depth : 16 bits
Compression mode : Lossy
Stream size : 318 MiB (11%)
Title : AC3; 6Ch; 48KHz; 16Bit; 448Kbps (Original)
Language : English

Text #1
ID : 5
Format : UTF-8
Codec ID : S_TEXT/UTF8
Codec ID/Info : UTF-8 Plain Text
Title : UTF-8; SRT (Forced)
Language : Russian

Text #2
ID : 6
Format : UTF-8
Codec ID : S_TEXT/UTF8
Codec ID/Info : UTF-8 Plain Text
Title : UTF-8; SRT
Language : Russian

Text #3
ID : 7
Format : UTF-8
Codec ID : S_TEXT/UTF8
Codec ID/Info : UTF-8 Plain Text
Title : UTF-8; SRT
Language : English

Menu
00:00:00.000 : en:Episode 01
00:05:28.703 : en:Episode 02
00:09:19.726 : en:Episode 03
00:14:44.759 : en:Episode 04
00:19:02.433 : en:Episode 05
00:24:25.339 : en:Episode 06
00:30:07.264 : en:Episode 07
00:35:06.980 : en:Episode 08
00:40:27.800 : en:Episode 09
00:45:15.463 : en:Episode 10
00:52:11.920 : en:Episode 11
00:56:57.289 : en:Episode 12
01:03:36.021 : en:Episode 13
01:08:50.460 : en:Episode 14
01:14:21.290 : en:Episode 15
01:19:25.803 : en:Episode 16
01:23:05.147 : en:Episode 17
01:26:24.304 : en:Episode 18
01:30:36.598 : en:Episode 19
01:32:34.299 : en:Episode 20
x264 log
x264 [info]: frame I:1817 Avg QP:15.95 size: 96894
x264 [info]: frame P:33409 Avg QP:19.09 size: 28584
x264 [info]: frame B:107527 Avg QP:21.07 size: 9198
x264 [info]: consecutive B-frames: 2.5% 2.2% 8.7% 42.0% 15.5% 22.6% 3.0% 2.9% 0.7%
x264 [info]: mb I I16..4: 13.9% 48.3% 37.7%
x264 [info]: mb P I16..4: 1.1% 9.1% 2.3% P16..4: 41.2% 26.0% 10.7% 1.3% 1.4% skip: 6.8%
x264 [info]: mb B I16..4: 0.1% 1.2% 0.4% B16..8: 35.8% 12.1% 4.3% direct: 7.1% skip:39.2% L0:40.4% L1:38.2% BI:21.4%
x264 [info]: 8x8 transform intra:67.3% inter:51.5%
x264 [info]: direct mvs spatial:98.5% temporal:1.5%
x264 [info]: coded y,uvDC,uvAC intra: 91.6% 90.8% 79.5% inter: 29.5% 27.1% 16.5%
x264 [info]: i16 v,h,dc,p: 37% 11% 22% 30%
x264 [info]: i8 v,h,dc,ddl,ddr,vr,hd,vl,hu: 13% 14% 8% 8% 11% 11% 11% 11% 12%
x264 [info]: i4 v,h,dc,ddl,ddr,vr,hd,vl,hu: 12% 13% 5% 8% 13% 13% 12% 11% 13%
x264 [info]: i8c dc,h,v,p: 47% 20% 17% 16%
x264 [info]: Weighted P-Frames: Y:3.1% UV:2.1%
x264 [info]: ref P L0: 48.6% 11.3% 15.1% 7.6% 5.4% 4.1% 3.2% 1.9% 1.5% 1.2% 0.1% 0.0%
x264 [info]: ref B L0: 74.5% 13.1% 5.4% 2.5% 1.7% 1.2% 0.9% 0.4% 0.2%
x264 [info]: ref B L1: 93.4% 6.6%
x264 [info]: kb/s:2848.57
Скриншоты



загрузка...
Правила, инструкции, FAQ!!!
Торрент  Добавлен [02 апр 2014, 12:06] Скачать торрент
Скачать торрент
[ Размер 15.04 КБ / Просмотров 9 ]

Статус  
 
Размер  2.91 ГБ
Приватный: Нет (DHT включён)
.torrent скачан  0
Как залить торрент? | Как скачать Torrent? | Как смотреть и слушать онлайн?  


     Отправить личное сообщение
   
Страница 1 из 1
Показать сообщения за:  Поле сортировки  
Начать новую тему Ответить на тему

   Похожие торренты   Автор   Ответы   Просмотры   Последнее сообщение 
В этой теме нет новых непрочитанных сообщений. Скачать торрент Сказки на ночь / Bedtime Stories (Адам Шенкман / Adam Shankman) [2008, США, фэнтези, комедия, семейный, HDRip] MVO

в форуме Детское, Семейное кино, Размер: 704.33 МБ, Здоровье: 0%

Anonymous

0
0|0

57
0

06 фев 2014, 11:44

Anonymous Перейти к последнему сообщению

В этой теме нет новых непрочитанных сообщений. Скачать торрент Сказки на ночь / Bedtime Stories (Адам Шенкман / Adam Shankman) [2008 г., фэнтези, комедия, семейный, HDRip-AVC]

в форуме 720p | 1080p, Размер: 2.18 ГБ, Здоровье: 0%

Anonymous

0
0|0

24
0

19 фев 2014, 11:41

Anonymous Перейти к последнему сообщению

В этой теме нет новых непрочитанных сообщений. Скачать торрент Лак для волос / Hairspray (Адам Шенкман / Adam Shankman) [2007 г., комедия, мелодрама, мюзикл, BDRip-AVC]

в форуме Комедии, Размер: 3.07 ГБ, Здоровье: 0%

Anonymous

0
0|0

42
0

01 апр 2014, 09:36

Anonymous Перейти к последнему сообщению

В этой теме нет новых непрочитанных сообщений. Скачать торрент Сказки на ночь / Bedtime Stories (2008) BDRip 1080p

в форуме 720p | 1080p, Размер: 5.77 ГБ, Здоровье: 100%

Anonymous

0
25|0

24
498

20 апр 2014, 20:46

Anonymous Перейти к последнему сообщению

В этой теме нет новых непрочитанных сообщений. Скачать торрент Спеши любить / Памятная прогулка / Walk to Remember, A (Адам Шенкман / Adam Shankman) [2002 г., мелодрама, драма, HDTVRip] Dub

в форуме Драмы, Мелодрамы, Размер: 2.19 ГБ, Здоровье: 100%

Anonymous

0
23|7

16
0

26 апр 2014, 20:58

Anonymous Перейти к последнему сообщению



Сейчас этот форум просматривают: нет зарегистрированных пользователей и гости: 2


Вы не можете начинать темы
Вы не можете отвечать на сообщения
Вы не можете редактировать свои сообщения
Вы не можете удалять свои сообщения
Вы не можете добавлять вложения

Перейти:  

!ВНИМАНИЕ!
 Ресурс не предоставляет электронные версии произведений, а занимается лишь коллекционированием и каталогизацией ссылок, присылаемых и публикуемых на форуме нашими читателями. Если вы являетесь правообладателем какого-либо представленного материала и не желаете чтобы ссылка на него находилась в нашем каталоге, свяжитесь с нами и мы незамедлительно удалим её. Файлы для обмена на трекере предоставлены пользователями сайта, и администрация не несёт ответственности за их содержание. Просьба не заливать файлы, защищенные авторскими правами, а также файлы нелегального содержания!