На всех торрентах на трекере установлена скидка на скачивание в размере 100 процентов(а).
 Возможность скачивания торрента НЕ зависит от ограничений при низком ратио, низком аплоаде, требуемом ратио или требуемом аплоаде.


Начать новую тему Ответить на тему
Статистика раздачи
Размер: 736.23 МБ | Добавлен: 02 апр 2014, 08:25 | Скачали: 0
Сидеров: 5  [0 байт/сек]    Личеров: 1  [0 байт/сек]
Пред. тема | След. тема 

Автор
Сообщение

СообщениеДобавлено: 02 апр 2014, 08:25 

Как все / Comme les autres / Baby Love


Страна: Франция
Жанр: Романтическая комедия, Гей-тема
Год выпуска: 2008
Продолжительность: 01:29:13

Перевод: Любительский (одноголосый закадровый) || Перевод: enrch321; озвучка: Василий Кошкин.
Cубтитры: нет
Режиссер: Венсан Гаренк / Vincent Garenq

В ролях: Ламберт Уилсон, Пилар Лопез де Айала, Паскаль Эльбе, Энн Броше, Флоренс Дарье и др.

Описание: Чего не хватает респектабельному французу в сорокалетнем расцвете сил? Деньги - есть, дом - есть, положение в обществе - есть, культурный и разнообразный досуг - есть, любовь - есть, да и все родственники и друзья давно привыкли, что он - ... гей, много лет живущий в паре с другим мужчиной. Однако, оказалось, не хватает объекта для тёплой родительской заботы - своего ребёнка. И жажда приложения нерастраченных родительских сил может заставить пойти его на многое - даже бросить любимого и ввязаться в сомнительную авантюру с незаконной иммигранткой - ведь законного способа стать отцом у него нет. Неужели у такой истории может быть хороший исход?..

Сэмпл: http://multi-up.com/529331

Качество видео: DVDRip (взят из сети)
Формат видео: AVI

Видео: XviD, 576x304, 1.895, 25.000 fps, 952 Kbps
Аудио: MP3, 44.1 KHz, 192 Kbps, 2 channels
MediaInfo
General
Complete name : D:\ВИДЕО\На торрент\Comme les autres Baby Love rus.avi
Format : AVI
Format/Info : Audio Video Interleave
File size : 736 MiB
Duration : 1h 29mn
Overall bit rate : 1 154 Kbps

Video
ID : 0
Format : MPEG-4 Visual
Format profile : Advanced Simple@L5
Format settings, BVOP : No
Format settings, QPel : No
Format settings, GMC : No warppoints
Format settings, Matrix : Default (MPEG)
Codec ID : XVID
Codec ID/Hint : XviD
Duration : 1h 29mn
Bit rate : 952 Kbps
Width : 576 pixels
Height : 304 pixels
Display aspect ratio : 1.895
Frame rate : 25.000 fps
Color space : YUV
Chroma subsampling : 4:2:0
Bit depth : 8 bits
Scan type : Progressive
Compression mode : Lossy
Bits/(Pixel*Frame) : 0.217
Stream size : 608 MiB (83%)
Writing library : XviD 62

Audio
ID : 1
Format : MPEG Audio
Format version : Version 1
Format profile : Layer 3
Codec ID : 55
Codec ID/Hint : MP3
Duration : 1h 29mn
Bit rate mode : Constant
Bit rate : 192 Kbps
Channel(s) : 2 channels
Sampling rate : 44.1 KHz
Compression mode : Lossy
Stream size : 123 MiB (17%)
Alignment : Split accross interleaves
Interleave, duration : 41 ms (1.03 video frame)
Writing library : LAMELAME_MAJOR_VERSI
Скриншот c названием фильма
Скриншоты

загрузка...
Правила, инструкции, FAQ!!!
Торрент  Добавлен [02 апр 2014, 08:25] Скачать торрент
Скачать торрент
[ Размер 14.88 КБ / Просмотров 11 ]

Статус  
 
Размер  736.23 МБ
Приватный: Нет (DHT включён)
.torrent скачан  0
Как залить торрент? | Как скачать Torrent? | Как смотреть и слушать онлайн?  


     Отправить личное сообщение
   
Страница 1 из 1
Показать сообщения за:  Поле сортировки  
Начать новую тему Ответить на тему

   Похожие торренты   Автор   Ответы   Просмотры   Последнее сообщение 
В этой теме нет новых непрочитанных сообщений. Скачать торрент Цыплёнок с черносливом / Poulet aux prunes / Chicken with plums (Венсан Паронно / Vincent Paronnaud, Маржан Сатрапи / Marjane Satrapi) [2011, Франция, Германия, Бельгия, драма, BDRip 1080p]

в форуме 720p | 1080p, Размер: 6.68 ГБ, Здоровье: 0%

Anonymous

0
0|0

32
0

25 фев 2014, 22:39

Anonymous Перейти к последнему сообщению

В этой теме нет новых непрочитанных сообщений. Скачать торрент Завтра я выхожу замуж / Demain je me marie (Винсент Джованни / Vincent Giovanni) [2010, Франция, Комедия, SATRip] MVO

в форуме Комедии, Размер: 1.4 ГБ, Здоровье: 100%

Anonymous

0
9|1

80
3

14 фев 2014, 07:45

Anonymous Перейти к последнему сообщению

В этой теме нет новых непрочитанных сообщений. Скачать торрент Дневник Бриджет Джонс / Bridget Jones's Diary (Шэрон Магуайр / Sharon Maguire) [2001, США, Великобритания, Ирландия, Франция, Романтическая комедия, BDRip] Dub (ОРТ)

в форуме Комедии, Размер: 2.61 ГБ, Здоровье: 100%

Anonymous

0
16|6

60
0

26 апр 2014, 20:56

Anonymous Перейти к последнему сообщению

В этой теме нет новых непрочитанных сообщений. Скачать торрент Мертвые парни не кричат / Dead Boyz Don't Scream (Марк Салтарелли / Marc Saltarelli) [2006 г., комедия, ужасы, гей-тема, DVDRip]

в форуме Комедии, Размер: 859.65 МБ, Здоровье: 100%

Anonymous

0
7|3

68
0

15 апр 2014, 08:16

Anonymous Перейти к последнему сообщению

В этой теме нет новых непрочитанных сообщений. Скачать торрент Почему бы и нет! / Dlaczego nie! (Ryszard Zatorski) [2007 г., Романтическая комедия/Мелодрама, DVDRip]

в форуме Комедии, Размер: 1.28 ГБ, Здоровье: 0%

Anonymous

0
0|0

70
0

17 май 2014, 20:05

Anonymous Перейти к последнему сообщению



Сейчас этот форум просматривают: нет зарегистрированных пользователей и гости: 1


Вы не можете начинать темы
Вы не можете отвечать на сообщения
Вы не можете редактировать свои сообщения
Вы не можете удалять свои сообщения
Вы не можете добавлять вложения

Перейти:  

!ВНИМАНИЕ!
 Ресурс не предоставляет электронные версии произведений, а занимается лишь коллекционированием и каталогизацией ссылок, присылаемых и публикуемых на форуме нашими читателями. Если вы являетесь правообладателем какого-либо представленного материала и не желаете чтобы ссылка на него находилась в нашем каталоге, свяжитесь с нами и мы незамедлительно удалим её. Файлы для обмена на трекере предоставлены пользователями сайта, и администрация не несёт ответственности за их содержание. Просьба не заливать файлы, защищенные авторскими правами, а также файлы нелегального содержания!