На всех торрентах на трекере установлена скидка на скачивание в размере 100 процентов(а).
 Возможность скачивания торрента НЕ зависит от ограничений при низком ратио, низком аплоаде, требуемом ратио или требуемом аплоаде.


Начать новую тему Ответить на тему
Статистика раздачи
Размер: 1.45 ГБ | Добавлен: 02 апр 2014, 08:22 | Скачали: 0
Сидеров: 7  [0 байт/сек]    Личеров: 21  [0 байт/сек]
Пред. тема | След. тема 

Автор
Сообщение

СообщениеДобавлено: 02 апр 2014, 08:22 

Участники турпоездки / Ucastnici zajezdu

Страна: Чехия
Жанр: Комедия, мелодрама
Год выпуска: 2006
Продолжительность: 01:57:00

Перевод: Одноголосый закадровый (агент смит по субтитрам nisa1)
Cубтитры: нет
Режиссер: Иржи Вейделек / Jiri Vejdelek

В ролях: Анна Поливкова, Богумил Клепл, Ева Голубова, Квета Фиалова, Яна Штепанкова, Яромир Носек, Адриан Ястрабан, Ондрей Коваль, Мирослав Кробот, Павел Лишка, Шарка Опршалова, Мартин Пехлат, Мартин Ситта, Ондржей Зах, Людмила Картоускова, Катержина Горникова, Здена Шубртова, Йитка Коцурова.

Описание: Фильм снят по бестселлеру современного чешского писателя Михала Вивега. Группа чешских туристов отправляется в автобусную поездку на море в Хорватию. Все эти люди купили путевки в турагентстве, и друг с другом познакомятся только по дороге. Всех их во время путешествия ожидает множество комичных и грустных ситуаций. Ктое же эти участники турпоездки? Представитель турагентства, обязанная следить за поведением людей, фотомодель Павлина, которая любит, когда ее называют Памелой. Супружеская пара и их взрослая дочь, решившая развлечь своих родителей, уставших от тридцатилетнего брака. Два гея и их приятель - знаменитый певец. Он не гей, но очень хочет отдохнуть от внимания женщин. Две старушки, путешествующие по "местам молодости". Многодетная семья: они экономят на всем, и даже еду готовят в гостиничном номере на привезенной плитке. Две девушки, мечтающие познакомиться с красивыми и сексуальными юношами. Одинокий любитель подводного плавания, скрывающий маленькую интимную тайну своей жизни. Ну, а главные в автобусе, конечно, водители. Карел и Карел. Они следят за порядком и не позволяют туристам нарушать установленные ими правила.



Качество видео: DVDRip
Формат видео: AVI

Видео: 704x368 (1,913), 25 fps, XviD MPEG-4 ~1322 kbps avg, 0.204 bit/pixel
Аудио: 48 kHz, AC3 Dolby Digital, 2/0 (L,R) ch ~448 kbps

MediaInfo
Формат : AVI
Формат/Информация : Audio Video Interleave
Размер файла : 1,45 Гбайт
Продолжительность : 1 ч. 57 м.
Общий поток : 1780 Кбит/сек
Программа кодирования : VirtualDubMod 1.5.10.2 (build 2540/release)
Библиотека кодирования : VirtualDubMod build 2540/release

Видео
Идентификатор : 0
Формат : MPEG-4 Visual
Профиль формата : Advanced Simple@L5
Параметр BVOP формата : 1
Параметр QPel формата : Нет
Параметр GMC формата : Без точки перехода
Параметр матрицы формата : Default (MPEG)
Режим смешивания : Сжатый битовый поток
Идентификатор кодека : XVID
Идентификатор кодека/Подсказка : XviD
Продолжительность : 1 ч. 57 м.
Битрейт : 1322 Кбит/сек
Ширина : 704 пикс.
Высота : 368 пикс.
Соотношение сторон : 1,913
Частота кадров : 25,000 кадр/сек
Цветовое пространство : YUV
Подвыборка цветности : 4:2:0
Битовая глубина : 8 бит
Тип развёртки : Прогрессивная
Метод сжатия : С потерями
Бит/(Пиксели*Кадры) : 0.204
Размер потока : 1,08 Гбайт (74%)
Библиотека кодирования : XviD 1.2.0.dev47 (UTC 2006-11-01)

Аудио
Идентификатор : 1
Формат : AC-3
Формат/Информация : Audio Coding 3
Расширение режима : CM (complete main)
Идентификатор кодека : 2000
Продолжительность : 1 ч. 57 м.
Вид битрейта : Постоянный
Битрейт : 448 Кбит/сек
Каналы : 2 канала
Расположение каналов : Front: L R
Частота : 48,0 КГц
Битовая глубина : 16 бит
Метод сжатия : С потерями
Размер потока : 375 Мбайт (25%)
Выравнивание : Разделение по промежуткам
Продолжительность промежутка : 40 мс. (1,00 видеокадр)
Время предзагрузки промежутка : 500 ms
Скриншоты
загрузка...
Правила, инструкции, FAQ!!!
Торрент  Добавлен [02 апр 2014, 08:22] Скачать торрент
Скачать торрент
[ Размер 15.15 КБ / Просмотров 26 ]

Статус  
 
Размер  1.45 ГБ
Приватный: Нет (DHT включён)
.torrent скачан  0
Как залить торрент? | Как скачать Torrent? | Как смотреть и слушать онлайн?  


     Отправить личное сообщение
   
Страница 1 из 1
Показать сообщения за:  Поле сортировки  
Начать новую тему Ответить на тему

   Похожие торренты   Автор   Ответы   Просмотры   Последнее сообщение 
В этой теме нет новых непрочитанных сообщений. Скачать торрент Проверен Бабаёжки / Babovresky [2013, Чехия, комедия, DVDRip] VO (Kass) + Original Cze

в форуме Комедии, Размер: 1.71 ГБ, Здоровье: 100%

Anonymous

0
34|12

62
0

24 ноя 2014, 22:06

Anonymous Перейти к последнему сообщению

В этой теме нет новых непрочитанных сообщений. Скачать торрент Иллюзионист / The Illusionist (Нил Бёргер / Neil Burger) [2006, США, Чехия, Мистика, мелодрама, детектив, BDRip-AVC] Dub + Sub Rus, Eng + Original Eng

в форуме 720p | 1080p, Размер: 748.21 МБ, Здоровье: 100%

Anonymous

0
34|11

45
0

04 фев 2014, 21:27

Anonymous Перейти к последнему сообщению

В этой теме нет новых непрочитанных сообщений. Скачать торрент Представь нас вместе / Imagine Me & You (Ол Паркер / Ol Parker) [2006 г., Комедия, мелодрама, DVDRip]

в форуме Комедии, Размер: 694.33 МБ, Здоровье: 100%

Anonymous

0
3|1

41
0

19 фев 2014, 09:53

Anonymous Перейти к последнему сообщению

В этой теме нет новых непрочитанных сообщений. Скачать торрент Венера / Venus (Roger Michell | Роджер Мичелл) [2006 г., Комедия, Мелодрама, Драма, DVDRip] VO + ENG

в форуме Комедии, Размер: 962.13 МБ, Здоровье: 0%

Anonymous

0
0|0

33
0

04 фев 2014, 21:24

Anonymous Перейти к последнему сообщению

В этой теме нет новых непрочитанных сообщений. Скачать торрент Ты только люби / Tylko mnie kochaj (Ryszard Zatorski) [2006 г., Комедия/Мелодрама, DVDRip]

в форуме Комедии, Размер: 751.46 МБ, Здоровье: 100%

Anonymous

0
169|6

230
10

03 апр 2014, 12:43

Anonymous Перейти к последнему сообщению



Сейчас этот форум просматривают: нет зарегистрированных пользователей и гости: 1


Вы не можете начинать темы
Вы не можете отвечать на сообщения
Вы не можете редактировать свои сообщения
Вы не можете удалять свои сообщения
Вы не можете добавлять вложения

Перейти:  

!ВНИМАНИЕ!
 Ресурс не предоставляет электронные версии произведений, а занимается лишь коллекционированием и каталогизацией ссылок, присылаемых и публикуемых на форуме нашими читателями. Если вы являетесь правообладателем какого-либо представленного материала и не желаете чтобы ссылка на него находилась в нашем каталоге, свяжитесь с нами и мы незамедлительно удалим её. Файлы для обмена на трекере предоставлены пользователями сайта, и администрация не несёт ответственности за их содержание. Просьба не заливать файлы, защищенные авторскими правами, а также файлы нелегального содержания!