На всех торрентах на трекере установлена скидка на скачивание в размере 100 процентов(а).
 Возможность скачивания торрента НЕ зависит от ограничений при низком ратио, низком аплоаде, требуемом ратио или требуемом аплоаде.


Начать новую тему Ответить на тему
Статистика раздачи
Размер: 1.45 ГБ | Добавлен: 29 мар 2014, 15:44 | Скачали: 0
Сидеров: 0  [0 байт/сек]    Личеров: 0  [0 байт/сек]
Пред. тема | След. тема 

Автор
Сообщение

СообщениеДобавлено: 29 мар 2014, 15:44 

Страна: Италия, Франция, Югославия
Жанр: комедия, приключения
Год выпуска: 1961
Продолжительность: 01:26:18
Перевод: Профессиональный (многоголосый, закадровый)


Режиссер: Ришар Потье / Richard Pottier


В ролях: Роджер Мур (Romulus), Милен Демонжо (Rea), Джорджия Молл (Lavinia), Шилла Габель (Dusia), Марино Мазе (Leno), Жан Маре (Marte), Розанна Скьяффино (Venere /Venus), Фолько Люлли (King Titus Tazio), Луиза Маттиоли (Silvia), Франсис Бланш (Mezio), Ниэтта Дзокки (Ersilia, Titus' Wife), Дина Де Сантис (Marzia)


Описание: Что делать, если твоя страна переполнена крепкими и весьма буйными мужчинами, а женщин катастрофически не хватает? А вот в соседних краях, у сабинов, прекрасного пола явный избыток. Может быть, просто похитить нужное количество? Но как? Правитель Рима, отважный и благородный Ромул, разработал простой и быстрый план снабжения женщинами своих подданных - необходимо устроить у стен Рима Олимпийские игры и пригласить всех жителей окрестных земель. Сказано - сделано, и вот уже толпы стекаются полюбоваться статными римскими парнями, а среди них - множество юных и симпатичных девушек. И как же хороши эти сабинянки! Итак, вперед, римляне - просто выбирай и разноси по домам!






Качество: DVDRip ( DVD-5(Custom) | palmeiras )
Контейнер: MKV

Видео: AVC, 704x416 @ 768x416 (1,85:1), 2209 kbps, 25 fps, 0,302 bpp
Аудио: русский / AC3 / 2.0 / 48 kHz / 192 kbps
Навигация по главам: есть


Формат : Matroska
Версия формата : Version 2
Размер файла : 1,45 Гбайт
Продолжительность : 1 ч. 26 м.
Общий поток : 2403 Кбит/сек
Название фильма : = Похищение сабинянок / Il Ratto delle sabine DVDRip by SC Kosmos =
Дата кодирования : UTC 2014-03-27 08:49:17
Программа кодирования : mkvmerge v3.3.0 ('Language') gebaut am Mar 24 2010 14:59:24
Библиотека кодирования : libebml v0.8.0 + libmatroska v0.9.0

Видео
Идентификатор : 1
Формат : AVC
Формат/Информация : Advanced Video Codec
Профиль формата : High@L4.1
Параметр CABAC формата : Да
Параметр ReFrames формата : 10 кадров
Идентификатор кодека : V_MPEG4/ISO/AVC
Продолжительность : 1 ч. 26 м.
Битрейт : 2209 Кбит/сек
Ширина : 704 пикселя
Высота : 416 пикселей
Соотношение сторон : 1,85:1
Режим частоты кадров : Постоянный
Частота кадров : 25,000 кадров/сек
Цветовое пространство : YUV
Субдискретизация насыщенности : 4:2:0
Битовая глубина : 8 бит
Тип развёртки : Прогрессивная
Бит/(Пиксели*Кадры) : 0.302
Размер потока : 1,30 Гбайт (90%)
Заголовок : Похищение сабинянок / Il Ratto delle sabine DVDRip by SC Kosmos
Библиотека кодирования : x264 core 142 r2409 d6b4e63
Настройки программы : cabac=1 / ref=10 / deblock=1:-2:-2 / analyse=0x3:0x113 / me=umh / subme=11 / psy=1 / psy_rd=1.00:0.00 / mixed_ref=1 / me_range=48 / chroma_me=1 / trellis=2 / 8x8dct=1 / cqm=0 / deadzone=21,11 / fast_pskip=0 / chroma_qp_offset=-2 / threads=12 / lookahead_threads=1 / sliced_threads=0 / nr=0 / decimate=1 / interlaced=0 / bluray_compat=0 / constrained_intra=0 / bframes=10 / b_pyramid=2 / b_adapt=1 / b_bias=0 / direct=3 / weightb=1 / open_gop=0 / weightp=2 / keyint=250 / keyint_min=25 / scenecut=40 / intra_refresh=0 / rc_lookahead=40 / rc=2pass / mbtree=0 / bitrate=2209 / ratetol=1.0 / qcomp=0.60 / qpmin=0 / qpmax=69 / qpstep=4 / cplxblur=20.0 / qblur=0.5 / vbv_maxrate=50000 / vbv_bufsize=50000 / nal_hrd=none / filler=0 / ip_ratio=1.40 / pb_ratio=1.30 / aq=1:1.00
Язык : English
Default : Нет
Forced : Нет

Аудио
Идентификатор : 2
Формат : AC-3
Формат/Информация : Audio Coding 3
Расширение режима : CM (complete main)
Параметр Endianness формата : Big
Идентификатор кодека : A_AC3
Продолжительность : 1 ч. 26 м.
Вид битрейта : Постоянный
Битрейт : 192 Кбит/сек
Каналы : 2 канала
Расположение каналов : Front: L R
Частота : 48,0 КГц
Битовая глубина : 16 бит
Метод сжатия : С потерями
Размер потока : 119 Мбайт (8%)
Заголовок : MVO
Язык : Russian
Default : Да
Forced : Нет

Меню
00:00:00.000 : en:Chapter 01
00:04:34.560 : en:Chapter 02
00:09:32.640 : en:Chapter 03
00:12:57.600 : en:Chapter 04
00:17:00.960 : en:Chapter 05
00:22:34.080 : en:Chapter 06
00:27:08.640 : en:Chapter 07
00:32:24.960 : en:Chapter 08
00:40:17.760 : en:Chapter 09
00:45:24.000 : en:Chapter 10
00:51:11.520 : en:Chapter 11
00:56:16.800 : en:Chapter 12
01:00:47.520 : en:Chapter 13
01:05:26.400 : en:Chapter 14
01:09:54.240 : en:Chapter 15
01:23:47.520 : en:Chapter 16
01:26:18.480 : en:Chapter 17







загрузка...
Правила, инструкции, FAQ!!!
Торрент  Добавлен [29 мар 2014, 15:44] Скачать торрент
Скачать торрент
[ Размер 14.98 КБ / Просмотров 3 ]

Статус  
 
Размер  1.45 ГБ
Приватный: Нет (DHT включён)
.torrent скачан  0
Как залить торрент? | Как скачать Torrent? | Как смотреть и слушать онлайн?  


     Отправить личное сообщение
   
Страница 1 из 1
Показать сообщения за:  Поле сортировки  
Начать новую тему Ответить на тему

   Похожие торренты   Автор   Ответы   Просмотры   Последнее сообщение 
В этой теме нет новых непрочитанных сообщений. Скачать торрент Сопротивление / Неприкаянные души / Al Di La’ Delle Frontiere (Маурицио Заккаро / Maurizio Zaccaro) [2004, Италия, Военный, драма, DVDRip] MVO

в форуме Военные, Размер: 2.72 ГБ, Здоровье: 100%

Anonymous

0
1|1

217
0

03 фев 2014, 12:33

Anonymous Перейти к последнему сообщению

В этой теме нет новых непрочитанных сообщений. Скачать торрент Записки Тинто Брасса. Джулия / Giulia / Specchio Delle Mie Brame (Тинто Брасс, Рой Стюарт, Стефано Соли) [2007 г., эротика, DVDRip]

в форуме Триллеры, Размер: 1.26 ГБ, Здоровье: 100%

Anonymous

0
6|1

88
2

16 фев 2014, 13:08

Anonymous Перейти к последнему сообщению

В этой теме нет новых непрочитанных сообщений. Скачать торрент Проверен Чиполлино (1961) DVDRip [H.264]

в форуме Отечественные мультфильмы, Размер: 698.01 МБ, Здоровье: 100%

Anonymous

0
16|4

45
0

18 июл 2014, 19:07

Anonymous Перейти к последнему сообщению

В этой теме нет новых непрочитанных сообщений. Скачать торрент Проверен (RPI related) Pietro Ratto (Aton's) - Xenia (1997), FLAC (image+.cue+artwork), lossless

в форуме Progressive & Art-Rock, Размер: 248.73 МБ, Здоровье: 100%

Anonymous

0
3|1

0
0

30 авг 2016, 00:00

Anonymous Перейти к последнему сообщению

В этой теме нет новых непрочитанных сообщений. Скачать торрент Проверен Поднятая целина (1959-1961) DVDRip-AVC

в форуме Кино СССР, Размер: 6.09 ГБ, Здоровье: 100%

Гость

0
30|4

71
49

27 мар 2016, 21:11

Гость Перейти к последнему сообщению



Сейчас этот форум просматривают: нет зарегистрированных пользователей и гости: 1


Вы не можете начинать темы
Вы не можете отвечать на сообщения
Вы не можете редактировать свои сообщения
Вы не можете удалять свои сообщения
Вы не можете добавлять вложения

Перейти:  

!ВНИМАНИЕ!
 Ресурс не предоставляет электронные версии произведений, а занимается лишь коллекционированием и каталогизацией ссылок, присылаемых и публикуемых на форуме нашими читателями. Если вы являетесь правообладателем какого-либо представленного материала и не желаете чтобы ссылка на него находилась в нашем каталоге, свяжитесь с нами и мы незамедлительно удалим её. Файлы для обмена на трекере предоставлены пользователями сайта, и администрация не несёт ответственности за их содержание. Просьба не заливать файлы, защищенные авторскими правами, а также файлы нелегального содержания!