На всех торрентах на трекере установлена скидка на скачивание в размере 100 процентов(а).
 Возможность скачивания торрента НЕ зависит от ограничений при низком ратио, низком аплоаде, требуемом ратио или требуемом аплоаде.


Начать новую тему Ответить на тему
Статистика раздачи
Размер: 2.31 ГБ | Добавлен: 13 мар 2014, 14:22 | Скачали: 0
Сидеров: 0  [0 байт/сек]    Личеров: 0  [0 байт/сек]
Пред. тема | След. тема 

Автор
Сообщение

СообщениеДобавлено: 13 мар 2014, 14:22 

Название: Придурок
Оригинальное название: The Jerk
Год выпуска: 1979
Жанр: Комедия
Выпущено: США, Aspen Film Society
Режиссер: Карл Райнер

В ролях: Стив Мартин, Бернадетт Питерс, Кэтлин Адамс, Мэйбл Кинг, Ричард Уорд, Дик Энтони Уильямс, Билл Мэйси, М. Эммет Уолш, Дик О’Нил, Морис Эванс

О фильме: Узнав что он приёмный сын, Нэйвин бросает своих названых чернокожих родителей и отправляется за смыслом жизни в Сент-Луис. Поначалу большой город не принимает новичка, и Нэйвину упорно приходится доказывать, что он чего-то стоит. Долго мучиться не приходится, как говорится — дуракам везёт, и на провинциального паренька нежданно-негаданно, оптом, сваливаются и богатство, и известность, и слава. Только вот что делать со всем этим внезапным счастьем, придётся поломать голову…

Качество: BDRip

Продолжительность: 01:33:54

Видео: XviD, 1898 Кбит/с, 720x384
Аудио 1: русский, 48 kHz, AC3, 6 ch, 448 kbps avg, [Профессиональный многоголосый, Lizard]
Аудио 2: русский, 48 kHz, AC3, 2 ch, 256 kbps avg, [Профессиональный многоголосый, CTC]
Аудио 3: русский, 48 kHz, AC3, 6 ch, 448 kbps avg, [Авторский, Алексей Михалёв]

Внешние файлы
Аудио: английский, 48 kHz, AC3, 6 ch, 448 kbps avg, [Оригинал]
Субтитры: русские
Субтитры: английские (для слабослышащих)

Исходник: ChuckNorriss (HDtracker)





Общее
Полное имя : D:VideoPridurok.1979.XviD.BDRipPridurok.1979.eng.SDH.srt
Формат : SubRip
Размер файла : 110 Кбайт

Текст
Формат : SubRip
Метод сжатия : Без потерь

Общее
Полное имя : D:VideoPridurok.1979.XviD.BDRipPridurok.1979.Original.eng.ac3
Формат : AC-3
Формат/Информация : Audio Coding 3
Размер файла : 301 Мбайт
Продолжительность : 1 ч. 33 м.
Режим общего битрейта : Постоянный
Общий поток : 448 Кбит/сек

Аудио
Формат : AC-3
Формат/Информация : Audio Coding 3
Расширение режима : CM (complete main)
Параметр Endianness формата : Big
Продолжительность : 1 ч. 33 м.
Вид битрейта : Постоянный
Битрейт : 448 Кбит/сек
Каналы : 6 каналов
Расположение каналов : Front: L C R, Side: L R, LFE
Частота : 48,0 КГц
Битовая глубина : 16 бит
Метод сжатия : С потерями
Размер потока : 301 Мбайт (100%)

Общее
Полное имя : D:VideoPridurok.1979.XviD.BDRipPridurok.1979.rus.srt
Размер файла : 78,1 Кбайт

Общее
Полное имя : D:VideoPridurok.1979.XviD.BDRipPridurok.1979.XviD.BDRip.avi
Формат : AVI
Формат/Информация : Audio Video Interleave
Профиль формата : OpenDML
Размер файла : 2,02 Гбайт
Продолжительность : 1 ч. 33 м.
Общий поток : 3075 Кбит/сек
Программа кодирования : VirtualDubMod 1.5.10.2 (build 2540/release)
Библиотека кодирования : VirtualDubMod build 2540/release

Видео
Идентификатор : 0
Формат : MPEG-4 Visual
Профиль формата : Advanced Simple@L5
Параметр BVOP формата : 1
Параметр QPel формата : Нет
Параметр GMC формата : Без точки перехода
Параметр матрицы формата : Default (H.263)
Режим смешивания : Сжатый битовый поток
Идентификатор кодека : XVID
Идентификатор кодека/Подсказка : XviD
Продолжительность : 1 ч. 33 м.
Битрейт : 1898 Кбит/сек
Ширина : 720 пикселей
Высота : 384 пикселя
Соотношение сторон : 1,85:1
Частота кадров : 23,976 кадра/сек
Цветовое пространство : YUV
Субдискретизация насыщенности : 4:2:0
Битовая глубина : 8 бит
Тип развёртки : Прогрессивная
Метод сжатия : С потерями
Бит/(Пиксели*Кадры) : 0.286
Размер потока : 1,25 Гбайт (62%)
Библиотека кодирования : XviD 1.2.1 (UTC 2008-12-04)

Аудио #1
Идентификатор : 1
Формат : AC-3
Формат/Информация : Audio Coding 3
Расширение режима : CM (complete main)
Параметр Endianness формата : Big
Идентификатор кодека : 2000
Продолжительность : 1 ч. 33 м.
Вид битрейта : Постоянный
Битрейт : 448 Кбит/сек
Каналы : 6 каналов
Расположение каналов : Front: L C R, Side: L R, LFE
Частота : 48,0 КГц
Битовая глубина : 16 бит
Метод сжатия : С потерями
Размер потока : 301 Мбайт (15%)
Выравнивание : Разделение по промежуткам
Продолжительность промежутка : 42 мс. (1,00 видеокадр)
Время предзагрузки промежутка : 500 мс.

Аудио #2
Идентификатор : 2
Формат : AC-3
Формат/Информация : Audio Coding 3
Расширение режима : CM (complete main)
Параметр Endianness формата : Big
Идентификатор кодека : 2000
Продолжительность : 1 ч. 33 м.
Вид битрейта : Постоянный
Битрейт : 256 Кбит/сек
Каналы : 2 канала
Расположение каналов : Front: L R
Частота : 48,0 КГц
Битовая глубина : 16 бит
Метод сжатия : С потерями
Размер потока : 172 Мбайт (8%)
Выравнивание : Разделение по промежуткам
Продолжительность промежутка : 42 мс. (1,00 видеокадр)
Время предзагрузки промежутка : 500 мс.

Аудио #3
Идентификатор : 3
Формат : AC-3
Формат/Информация : Audio Coding 3
Расширение режима : CM (complete main)
Параметр Endianness формата : Big
Идентификатор кодека : 2000
Продолжительность : 1 ч. 33 м.
Вид битрейта : Постоянный
Битрейт : 448 Кбит/сек
Каналы : 6 каналов
Расположение каналов : Front: L C R, Side: L R, LFE
Частота : 48,0 КГц
Битовая глубина : 16 бит
Метод сжатия : С потерями
Размер потока : 301 Мбайт (15%)
Выравнивание : Разделение по промежуткам
Продолжительность промежутка : 42 мс. (1,00 видеокадр)
Время предзагрузки промежутка : 500 мс.


загрузка...
Правила, инструкции, FAQ!!!
Торрент  Добавлен [13 мар 2014, 14:22] Скачать торрент
Скачать торрент
[ Размер 12.26 КБ / Просмотров 11 ]

Статус  
 
Размер  2.31 ГБ
Приватный: Нет (DHT включён)
.torrent скачан  0
Как залить торрент? | Как скачать Torrent? | Как смотреть и слушать онлайн?  


     Отправить личное сообщение
   
Страница 1 из 1
Показать сообщения за:  Поле сортировки  
Начать новую тему Ответить на тему

   Похожие торренты   Автор   Ответы   Просмотры   Последнее сообщение 
В этой теме нет новых непрочитанных сообщений. Скачать торрент Проверен (Rock) Angel Da Rock - С Днем Рождения, Придурок! - 2009, MP3 (tracks), 320 kbps

в форуме Русский Рок, Размер: 126.47 МБ, Здоровье: 100%

Anonymous

0
1|0

4
1

21 авг 2016, 14:30

Anonymous Перейти к последнему сообщению

В этой теме нет новых непрочитанных сообщений. Скачать торрент Проверен (Techno) [24 bit / 96 kHz] Al-Faris vs. The Pagemaster - After Midnight (JERK 9701-8) Vinyl (1997), FLAC (tracks)

в форуме Электронная музыка (оцифровки), Размер: 502.64 МБ, Здоровье: 0%

Anonymous

0
0|0

1
0

14 сен 2016, 22:10

Anonymous Перейти к последнему сообщению

В этой теме нет новых непрочитанных сообщений. Скачать торрент Проверен (Techno) [EP] Tube Jerk - Eight (ILLXXX015) - (96khz / 24 bit) - Vinyl - 1999, FLAC (tracks), lossless

в форуме Электронная музыка (оцифровки), Размер: 325.4 МБ, Здоровье: 0%

Anonymous

0
0|0

1
0

15 сен 2016, 20:12

Anonymous Перейти к последнему сообщению

В этой теме нет новых непрочитанных сообщений. Скачать торрент Проверен (Techno) [JERK 96 04] Club Quake - The Voyage - 1996, FLAC (tracks), vinyl-rip lossless

в форуме Электронная музыка (оцифровки), Размер: 159.72 МБ, Здоровье: 0%

Anonymous

0
0|0

1
0

14 сен 2016, 23:56

Anonymous Перейти к последнему сообщению

В этой теме нет новых непрочитанных сообщений. Скачать торрент Проверен (Techno) [JERK 9701-8] Al-Faris vs The Pagemaster - After Midnight [EP] - 1997, FLAC (tracks), vinyl-rip lossless

в форуме Электронная музыка (оцифровки), Размер: 152.44 МБ, Здоровье: 0%

Anonymous

0
0|0

1
0

14 сен 2016, 22:10

Anonymous Перейти к последнему сообщению



Сейчас этот форум просматривают: нет зарегистрированных пользователей и гости: 1


Вы не можете начинать темы
Вы не можете отвечать на сообщения
Вы не можете редактировать свои сообщения
Вы не можете удалять свои сообщения
Вы не можете добавлять вложения

Перейти:  

!ВНИМАНИЕ!
 Ресурс не предоставляет электронные версии произведений, а занимается лишь коллекционированием и каталогизацией ссылок, присылаемых и публикуемых на форуме нашими читателями. Если вы являетесь правообладателем какого-либо представленного материала и не желаете чтобы ссылка на него находилась в нашем каталоге, свяжитесь с нами и мы незамедлительно удалим её. Файлы для обмена на трекере предоставлены пользователями сайта, и администрация не несёт ответственности за их содержание. Просьба не заливать файлы, защищенные авторскими правами, а также файлы нелегального содержания!