На всех торрентах на трекере установлена скидка на скачивание в размере 100 процентов(а).
 Возможность скачивания торрента НЕ зависит от ограничений при низком ратио, низком аплоаде, требуемом ратио или требуемом аплоаде.


Начать новую тему Ответить на тему
Статистика раздачи
Размер: 1.47 ГБ | Добавлен: 22 фев 2014, 09:39 | Скачали: 69
Сидеров: 12  [0 байт/сек]    Личеров: 7  [0 байт/сек]
Пред. тема | След. тема 

Автор
Сообщение

СообщениеДобавлено: 22 фев 2014, 09:39 

Налево от лифта / À gauche en sortant de l`ascenseur

Страна: Франция
Жанр: комедия
Год выпуска: 1988
Продолжительность: 01:19:05
Перевод #1: Профессиональный (дублированный), киностудия им. М. Горького
Перевод #2: Профессиональный (многоголосый закадровый)
Оригинальная аудиодорожка: французский
Cубтитры: нет

Режиссер: Эдуар Молинаро / Édouard Molinaro

В ролях: Пьер Ришар / Pierre Richard, Эмманюэль Беар / Emmanuelle Béart, Ришар Боренже / Richard Bohringer, Фанни Коттенсон / Fanny Cottençon, Эрик Блан / Éric Blanc, Жан-Мишель Дюпюи / Jean-Michel Dupuis, Мартина Максимен / Martine Maximin, Альбер Симоно / Albert Simono, Мишель Кретон / Michel Creton, Пьер Вернье / Pierre Vernier

Описание: Художник Ян знакомится с прелестной блондинкой и приглашает ее в гости. Но вместе с ней являются полуголая соседка Ева, дверь которой случайно захлопнулась, ее буйный муж Борис, тоже художник, а также муж блондинки, горничная, верный друг и пара полицейских....





Качество видео: DVDRip [Исходник DVD9]
Формат видео: AVI
Видео кодек: XviD
Аудио кодек: AC3
Видео: 720x304 (2.37:1), 25 fps, XviD build 73 ~2057 kbps avg, 0.38 bit/pixel
Аудио #1: 48 kHz, AC3 Dolby Digital, 2/0 (L,R) ch, ~192 kbps | Dub
Аудио #2: 48 kHz, AC3 Dolby Digital, 2/0 (L,R) ch, ~192 kbps | MVO
Аудио #3: 48 kHz, AC3 Dolby Digital, 2/0 (L,R) ch, ~192 kbps | Original

Раздача от:


D:Мои рипыНовая папкаNalevo.ot.lifta.DVDRip.dexter_lex.avi
General
Complete name : D:Мои рипыНовая папкаNalevo.ot.lifta.DVDRip.dexter_lex.avi
Format : AVI
Format/Info : Audio Video Interleave
File size : 1.47 GiB
Duration : 1h 19mn
Overall bit rate : 2 655 Kbps
Writing application : VirtualDubMod 1.5.10.3 | http://www.virtualdub-fr.org || (build 2550/release)
Writing library : VirtualDubMod build 2550/release
Video #0
ID : 0
Format : MPEG-4 Visual
Format profile : Advanced Simple@L5
Format settings, BVOP : 1
Format settings, QPel : No
Format settings, GMC : No warppoints
Format settings, Matrix : Custom
Codec ID : XVID
Codec ID/Hint : XviD
Duration : 1h 19mn
Bit rate : 2 060 Kbps
Width : 720 pixels
Height : 304 pixels
Display aspect ratio : 2.35:1
Frame rate : 25.000 fps
Color space : YUV
Chroma subsampling : 4:2:0
Bit depth : 8 bits
Scan type : Progressive
Compression mode : Lossy
Bits/(Pixel*Frame) : 0.376
Stream size : 1.14 GiB (78%)
Writing library : XviD 73
Audio #1
ID : 1
Format : AC-3
Format/Info : Audio Coding 3
Mode extension : CM (complete main)
Codec ID : 2000
Duration : 1h 19mn
Bit rate mode : Constant
Bit rate : 192 Kbps
Channel(s) : 2 channels
Channel positions : Front: L R
Sampling rate : 48.0 KHz
Bit depth : 16 bits
Compression mode : Lossy
Stream size : 109 MiB (7%)
Alignment : Split accross interleaves
Interleave, duration : 40 ms (1.00 video frame)
Interleave, preload duration : 500 ms
Audio #2
ID : 2
Format : AC-3
Format/Info : Audio Coding 3
Mode extension : CM (complete main)
Codec ID : 2000
Duration : 1h 19mn
Bit rate mode : Constant
Bit rate : 192 Kbps
Channel(s) : 2 channels
Channel positions : Front: L R
Sampling rate : 48.0 KHz
Bit depth : 16 bits
Compression mode : Lossy
Stream size : 109 MiB (7%)
Alignment : Split accross interleaves
Interleave, duration : 40 ms (1.00 video frame)
Interleave, preload duration : 500 ms
Audio #3
ID : 3
Format : AC-3
Format/Info : Audio Coding 3
Mode extension : CM (complete main)
Codec ID : 2000
Duration : 1h 19mn
Bit rate mode : Constant
Bit rate : 192 Kbps
Channel(s) : 2 channels
Channel positions : Front: L R
Sampling rate : 48.0 KHz
Bit depth : 16 bits
Compression mode : Lossy
Stream size : 109 MiB (7%)
Alignment : Split accross interleaves
Interleave, duration : 40 ms (1.00 video frame)
Interleave, preload duration : 500 ms

загрузка...
Правила, инструкции, FAQ!!!
Торрент  Добавлен [22 фев 2014, 09:39] Скачать торрент
Скачать торрент
[ Размер 15.26 КБ / Просмотров 5 ]

Статус  
 
Размер  1.47 ГБ
Приватный: Нет (DHT включён)
.torrent скачан  69
Как залить торрент? | Как скачать Torrent? | Как смотреть и слушать онлайн?  


     Отправить личное сообщение
   
Страница 1 из 1
Показать сообщения за:  Поле сортировки  
Начать новую тему Ответить на тему

   Похожие торренты   Автор   Ответы   Просмотры   Последнее сообщение 
В этой теме нет новых непрочитанных сообщений. Скачать торрент Проверен [TR24][OF] Miles Davis - Ascenseur Pour L'Echafaud, OST - 1957/2013 (Jazz)

в форуме Hi-Res stereo (Джаз и Блюз), Размер: 1.57 ГБ, Здоровье: 0%

Anonymous

0
0|0

8
0

27 авг 2016, 13:39

Anonymous Перейти к последнему сообщению

В этой теме нет новых непрочитанных сообщений. Скачать торрент Проверен (Symphonic-Prog) Christian Decamps & Fils ( ANGE RELATED ) - Troisieme etoile a gauche - 1997, FLAC (tracks+.cue), lossless

в форуме Progressive & Art-Rock, Размер: 540.7 МБ, Здоровье: 100%

Anonymous

0
1|0

0
0

31 авг 2016, 23:40

Anonymous Перейти к последнему сообщению

В этой теме нет новых непрочитанных сообщений. Скачать торрент Проверен (Hard Rock) Guns n`Roses - Live In New York (The Ritz, 1988.02.02) - 1988 (DVDRip), MP3, 192 kbps

в форуме Classic Rock & Hard Rock, Размер: 80.51 МБ, Здоровье: 100%

Anonymous

0
2|1

0
0

14 ноя 2016, 18:29

Anonymous Перейти к последнему сообщению

В этой теме нет новых непрочитанных сообщений. Скачать торрент Перевал (1988) DVDRip

в форуме Отечественные мультфильмы, Размер: 526.48 МБ, Здоровье: 100%

Anonymous

0
8|1

66
0

02 фев 2014, 21:07

Anonymous Перейти к последнему сообщению

В этой теме нет новых непрочитанных сообщений. Скачать торрент Игла (1988) DVDRip

в форуме Драмы, Мелодрамы, Размер: 1.45 ГБ, Здоровье: 100%

Anonymous

0
2|0

47
1

30 дек 2013, 08:52

Anonymous Перейти к последнему сообщению



Сейчас этот форум просматривают: нет зарегистрированных пользователей и гости: 4


Вы не можете начинать темы
Вы не можете отвечать на сообщения
Вы не можете редактировать свои сообщения
Вы не можете удалять свои сообщения
Вы не можете добавлять вложения

Перейти:  

!ВНИМАНИЕ!
 Ресурс не предоставляет электронные версии произведений, а занимается лишь коллекционированием и каталогизацией ссылок, присылаемых и публикуемых на форуме нашими читателями. Если вы являетесь правообладателем какого-либо представленного материала и не желаете чтобы ссылка на него находилась в нашем каталоге, свяжитесь с нами и мы незамедлительно удалим её. Файлы для обмена на трекере предоставлены пользователями сайта, и администрация не несёт ответственности за их содержание. Просьба не заливать файлы, защищенные авторскими правами, а также файлы нелегального содержания!