На всех торрентах на трекере установлена скидка на скачивание в размере 100 процентов(а).
 Возможность скачивания торрента НЕ зависит от ограничений при низком ратио, низком аплоаде, требуемом ратио или требуемом аплоаде.


Начать новую тему Ответить на тему
Статистика раздачи
Размер: 1.46 ГБ | Добавлен: 19 фев 2014, 11:43 | Скачали: 0
Сидеров: 0  [0 байт/сек]    Личеров: 0  [0 байт/сек]
Пред. тема | След. тема 

Автор
Сообщение

СообщениеДобавлено: 19 фев 2014, 11:43 

Клерки 2 / Clerks II

Год выпуска: 2006
Страна: США
Жанр: комедия
Продолжительность: 01:37:32.021 (140308 frames)
Перевод: Профессиональный (полное дублирование)
Русские субтитры: нет

Режиссер: Кевин Смит / Kevin Smith

В ролях: Брайан О'Хэллоран, Джефф Андерсон, Розарио Доусон, Джейсон Мьюз, Кевин Смит, Тревор Ферман, Дженнифер Швальбах Смит, Кевин Уайзман, Бен Эффлек, Уолтер Фланаган, Джейсон Ли, Скотт Мозье, Итэн Сапли, Ванда Сайкс

Описание: Лучшие друзья Данте Хикс и Рэндал Грэйвс, работающие в маленьком супермаркете в Нью-Джерси, к 33 годам добились того, чего хотели. Во-первых, они работают вместе, во-вторых, бездельничают целыми днями, а в-третьих, получают за это зарплату. Но когда их любимый магазинчик терпит крах, Данте и Рэндалу приходится задуматься о новой работе. Несмотря на дурные привычки и безудержную любовь к веселью, друзьям все-таки удается устроиться в закусочную «У Муби», где уже работают придурковатый Элайас и невероятно сексуальная Бекки. Когда же Данте объявляет о своем намерении покинуть Нью-Джерси и жениться на Эмме Бантинг, его сослуживцы устраивают ему пышные проводы. Во время этого торжества между ними разгораются горячие споры на такие темы, как «Сравнительный анализ «Возвращения короля» и «Возвращения джедая», «Джордж Лукас против Питера Джексона и Иисуса Христа», «Подростковый секс» и «Отношения с клиентами». В итоге Данте должен ответить на самый важный для него вопрос: каким образом остепенившиеся обыватели ухитряются совмещать в своей жизни дружбу, любовь, работу и веселое времяпрепровождение?

Качество: HD-DVDRip
Формат: AVI
Видео кодек: XviD
Аудио кодек: AC3
Видео: 720x400 (1.80:1), 23.976 fps, XviD build 50 ~1692 kbps avg, 0.25 bit/pixel
Аудио: 48 kHz, AC3 Dolby Digital, 3/2 (L,C,R,l,r) + LFE ch, ~448.00 kbps avg
Скриншоты
Медиаинфо
General
Complete name : E:\001 МОИ РАЗДАЧИ\Клерки-2 1,46\klerki-2_1.46_[torrents.ru]_by_bm11.avi
Format : AVI
Format/Info : Audio Video Interleave
File size : 1.46 GiB
Duration : 1h 37mn
Overall bit rate : 2 150 Kbps
Writing application : VirtualDubMod 1.5.10.2 (build 2540/release)
Writing library : VirtualDubMod build 2540/release
Video
Format : MPEG-4 Visual
Format profile : Streaming Video@L1
Format settings, BVOP : Yes
Format settings, QPel : No
Format settings, GMC : No warppoints
Format settings, Matrix : Custom
Codec ID : XVID
Codec ID/Hint : XviD
Duration : 1h 37mn
Bit rate : 1 693 Kbps
Width : 720 pixels
Height : 400 pixels
Display aspect ratio : 16/9
Frame rate : 23.976 fps
Resolution : 24 bits
Colorimetry : 4:2:0
Scan type : Progressive
Bits/(Pixel*Frame) : 0.245
Stream size : 1.15 GiB (79%)
Writing library : XviD 50
Audio
Format : AC-3
Format/Info : Audio Coding 3
Codec ID : 2000
Duration : 1h 37mn
Bit rate mode : Constant
Bit rate : 448 Kbps
Channel(s) : 6 channels
Channel positions : Front: L C R, Surround: L R, LFE
Sampling rate : 48.0 KHz
Stream size : 312 MiB (21%)
Alignment : Split accross interleaves
Interleave, duration : 42 ms (1.00 video frame)
Interleave, preload duration : 500 ms
загрузка...
Правила, инструкции, FAQ!!!
Торрент  Добавлен [19 фев 2014, 11:43] Скачать торрент
Скачать торрент
[ Размер 15.14 КБ / Просмотров 15 ]

Статус  
 
Размер  1.46 ГБ
Приватный: Нет (DHT включён)
.torrent скачан  0
Как залить торрент? | Как скачать Torrent? | Как смотреть и слушать онлайн?  


     Отправить личное сообщение
   
Страница 1 из 1
Показать сообщения за:  Поле сортировки  
Начать новую тему Ответить на тему

   Похожие торренты   Автор   Ответы   Просмотры   Последнее сообщение 
В этой теме нет новых непрочитанных сообщений. Скачать торрент Проверен [iPhone] Догма / Dogma (Кевин Смит / Kevin Smith) [1999 г., Фэнтези, Комедия, HDRip, 320p]

в форуме Фильмы для iPod, iPhone, iPad, Размер: 1.15 ГБ, Здоровье: 100%

Гость

0
14|5

37
0

11 май 2015, 01:30

Гость Перейти к последнему сообщению

В этой теме нет новых непрочитанных сообщений. Скачать торрент Двойной КОПец / Cop Out (Кевин Смит / Kevin Smith) [2010, США, боевик, комедия, криминал, BDRip] (перевод Гоблина)

в форуме Боевики, Размер: 1.37 ГБ, Здоровье: 100%

Anonymous

0
48|16

49
0

17 май 2014, 20:08

Anonymous Перейти к последнему сообщению

В этой теме нет новых непрочитанных сообщений. Скачать торрент Двойной КОПец / Крепкие Орешки / Cop Out (Кевин Смит / Kevin Smith) [2010, США, Боевик, комедия, криминал, BDRip] AVO Гаврилов

в форуме Боевики, Размер: 1.74 ГБ, Здоровье: 100%

Anonymous

0
2|1

40
0

17 май 2014, 20:08

Anonymous Перейти к последнему сообщению

В этой теме нет новых непрочитанных сообщений. Скачать торрент Зак и Мири снимают порно / Zack and Miri Make a Porno (Кевин Смит / Kevin Smith) [2008 г., Комедия, мелодрама, HDRip-AVC]

в форуме Комедии, Размер: 2.04 ГБ, Здоровье: 100%

Anonymous

0
7|2

44
0

14 апр 2014, 09:28

Anonymous Перейти к последнему сообщению

В этой теме нет новых непрочитанных сообщений. Скачать торрент Джей и молчаливый Боб наносят ответный удар / Jay And Silent Bob Strike Back (Кевин Смит / Kevin Smith) [2001 г., комедия, приключения, HDRip]

в форуме Комедии, Размер: 746.12 МБ, Здоровье: 100%

Anonymous

0
39|13

45
0

10 фев 2014, 13:06

Anonymous Перейти к последнему сообщению



Сейчас этот форум просматривают: нет зарегистрированных пользователей и гости: 1


Вы не можете начинать темы
Вы не можете отвечать на сообщения
Вы не можете редактировать свои сообщения
Вы не можете удалять свои сообщения
Вы не можете добавлять вложения

Перейти:  

!ВНИМАНИЕ!
 Ресурс не предоставляет электронные версии произведений, а занимается лишь коллекционированием и каталогизацией ссылок, присылаемых и публикуемых на форуме нашими читателями. Если вы являетесь правообладателем какого-либо представленного материала и не желаете чтобы ссылка на него находилась в нашем каталоге, свяжитесь с нами и мы незамедлительно удалим её. Файлы для обмена на трекере предоставлены пользователями сайта, и администрация не несёт ответственности за их содержание. Просьба не заливать файлы, защищенные авторскими правами, а также файлы нелегального содержания!