На всех торрентах на трекере установлена скидка на скачивание в размере 100 процентов(а).
 Возможность скачивания торрента НЕ зависит от ограничений при низком ратио, низком аплоаде, требуемом ратио или требуемом аплоаде.


Начать новую тему Ответить на тему
Статистика раздачи
Размер: 2.87 ГБ | Добавлен: 19 фев 2014, 11:43 | Скачали: 0
Сидеров: 0  [0 байт/сек]    Личеров: 0  [0 байт/сек]
Пред. тема | След. тема 

Автор
Сообщение

СообщениеДобавлено: 19 фев 2014, 11:43 

Везунчик / Lucky You
«Change your game. Change your life»

Страна: США, Германия, Австралия
Жанр: Комедия, мелодрама
Год выпуска: 2007
Продолжительность: 01:58:27
Перевод 1: Профессиональный (многоголосый закадровый)
Перевод 2: Профессиональный (двухголосый закадровый) [отдельно]
Cубтитры: русские, английские
Оригинальная аудиодорожка: английский [отдельно]
Режиссер: Кертис Хэнсон / Curtis Hanson
В ролях: Эрик Бана, Дрю Берримор, Роберт Дюваль, Дебра Мессинг, Горацио Санз, Жан Смарт, Кельвин Хан Йи, Чарльз Мартин Смит, Роберт Дауни Мл., Майкл Шэннон
Описание: Действие фильма разворачивается в мире профессионального покера. Главный герой ленты — игрок Хак Чивер, который не жалеет сил для победы и не боится рисковать. В личной жизни он, напротив, ведет себя разумно и осторожно, избегая эмоциональных порывов и каких-либо обязательств. Когда же Хак берется выиграть чемпионат мира по покеру 2003 года, а заодно и очаровать молодую певицу из Бейкерсфилда Билли Оффер, он встречает на своем пути только одно препятствие — в лице своего отца, легендарного игрока в покер, бросившего мать Хака много лет назад. В итоге отец и сын становятся соперниками не только в жизни, но и за карточным столом. По мере приближения финальной схватки Хак приходит к осознанию одной простой истины: чтобы одерживать победы и в жизни, и в игре, необходимо соединить свои человеческие достоинства с талантом игрока…


Сэмпл


Тип релиза: HDTVRip [исх. HDTVRip 1080p]
Формат видео: AVI
Видео: 704x288 (2.44:1), 25 fps, XviD build 50, 2248 kbps avg, 0.44 bit/pixel
Аудио 1: 48 kHz, AC3 Dolby Digital, 3/2 (L,C,R,l,r) + LFE ch, 384.00 kbps avg [Russian_MVO]
Аудио 2: 48 kHz, AC3 Dolby Digital, 3/2 (L,C,R,l,r) + LFE ch, 448.00 kbps avg [Russian_DVO] [отдельно]
Аудио 3: 48 kHz, AC3 Dolby Digital, 3/2 (L,C,R,l,r) + LFE ch, 384.00 kbps avg [English] [i][отдельно]
MediaInfo
General
Complete name : E:\Мои раздачи\Lucky You_2.18_RG_All_Films\Lucky You_HDTVRip_RG_All_Films.avi
Format : AVI
Format/Info : Audio Video Interleave
Format profile : OpenDML
File size : 2.18 GiB
Duration : 1h 58mn
Overall bit rate : 2 640 Kbps
Writing application : VirtualDubMod 1.5.10.3
Writing library : VirtualDubMod build 2550/release

Video
ID : 0
Format : MPEG-4 Visual
Format profile : Advanced Simple@L5
Format settings, BVOP : Yes
Format settings, QPel : No
Format settings, GMC : No warppoints
Format settings, Matrix : Custom
Codec ID : XVID
Codec ID/Hint : XviD
Duration : 1h 58mn
Bit rate : 2 244 Kbps
Width : 704 pixels
Height : 288 pixels
Display aspect ratio : 2.40:1
Frame rate : 25.000 fps
Color space : YUV
Chroma subsampling : 4:2:0
Bit depth : 8 bits
Scan type : Progressive
Compression mode : Lossy
Bits/(Pixel*Frame) : 0.443
Stream size : 1.86 GiB (85%)
Writing library : XviD 1.2.1 (UTC 2008-12-04)

Audio
ID : 1
Format : AC-3
Format/Info : Audio Coding 3
Mode extension : CM (complete main)
Codec ID : 2000
Duration : 1h 58mn
Bit rate mode : Constant
Bit rate : 384 Kbps
Channel(s) : 6 channels
Channel positions : Front: L C R, Side: L R, LFE
Sampling rate : 48.0 KHz
Bit depth : 16 bits
Compression mode : Lossy
Stream size : 325 MiB (15%)
Alignment : Split accross interleaves
Interleave, duration : 40 ms (1.00 video frame)
Interleave, preload duration : 500 ms

General
Complete name : E:\Мои раздачи\Lucky You_2.18_RG_All_Films\Lucky You_HDTVRip_RG_All_Films_DVO.ac3
Format : AC-3
Format/Info : Audio Coding 3
File size : 380 MiB
Duration : 1h 58mn
Overall bit rate : 448 Kbps

Audio
Format : AC-3
Format/Info : Audio Coding 3
Mode extension : CM (complete main)
Duration : 1h 58mn
Bit rate mode : Constant
Bit rate : 448 Kbps
Channel(s) : 6 channels
Channel positions : Front: L C R, Side: L R, LFE
Sampling rate : 48.0 KHz
Bit depth : 16 bits
Compression mode : Lossy
Stream size : 380 MiB (100%)

General
Complete name : E:\Мои раздачи\Lucky You_2.18_RG_All_Films\Lucky You_HDTVRip_RG_All_Films_Eng.ac3
Format : AC-3
Format/Info : Audio Coding 3
File size : 325 MiB
Duration : 1h 58mn
Overall bit rate : 384 Kbps

Audio
Format : AC-3
Format/Info : Audio Coding 3
Mode extension : CM (complete main)
Duration : 1h 58mn
Bit rate mode : Constant
Bit rate : 384 Kbps
Channel(s) : 6 channels
Channel positions : Front: L C R, Side: L R, LFE
Sampling rate : 48.0 KHz
Bit depth : 16 bits
Compression mode : Lossy
Stream size : 325 MiB (100%)

General
Complete name : E:\Мои раздачи\Lucky You_2.18_RG_All_Films\Lucky You_HDTVRip_RG_All_Films_English.srt
Format : SubRip
File size : 101 KiB

Text
Format : SubRip
Compression mode : Lossless

General
Complete name : E:\Мои раздачи\Lucky You_2.18_RG_All_Films\Lucky You_HDTVRip_RG_All_Films_Russian.srt
Format : SubRip
File size : 96.4 KiB

Text
Format : SubRip
Compression mode : Lossless

загрузка...
Правила, инструкции, FAQ!!!
Торрент  Добавлен [19 фев 2014, 11:43] Скачать торрент
Скачать торрент
[ Размер 15.18 КБ / Просмотров 11 ]

Статус  
 
Размер  2.87 ГБ
Приватный: Нет (DHT включён)
.torrent скачан  0
Как залить торрент? | Как скачать Torrent? | Как смотреть и слушать онлайн?  


     Отправить личное сообщение
   
Страница 1 из 1
Показать сообщения за:  Поле сортировки  
Начать новую тему Ответить на тему

   Похожие торренты   Автор   Ответы   Просмотры   Последнее сообщение 
В этой теме нет новых непрочитанных сообщений. Скачать торрент Подальше от тебя / In Her Shoes (Кёртис Хэнсон / Curtis Hanson) [2005 г., комедия, мелодрама, драма, HDTVRip] Dub

в форуме Комедии, Размер: 748.85 МБ, Здоровье: 100%

Anonymous

0
56|19

36
0

10 фев 2014, 13:05

Anonymous Перейти к последнему сообщению

В этой теме нет новых непрочитанных сообщений. Скачать торрент 8 миля / 8 Mile (Кёртис Хэнсон / Curtis Hanson) [2002, драма, музыка, BDRip-AVC, 720p] Dub + Original + Subs

в форуме 720p | 1080p, Размер: 1.97 ГБ, Здоровье: 0%

Anonymous

0
0|0

34
0

03 фев 2014, 12:31

Anonymous Перейти к последнему сообщению

В этой теме нет новых непрочитанных сообщений. Скачать торрент Секреты Лос-Анджелеса / L.A. Confidential (Кёртис Хэнсон / Curtis Hanson) [1997 г., Криминал, Триллер, Нуар, BDRip 1080p]

в форуме 720p | 1080p, Размер: 14.94 ГБ, Здоровье: 0%

Anonymous

0
0|0

45
0

25 фев 2014, 22:39

Anonymous Перейти к последнему сообщению

В этой теме нет новых непрочитанных сообщений. Скачать торрент Секреты Лос-Анджелеса / L.A. Confidential (Кёртис Хэнсон / Curtis Hanson) [1997, США, триллер, драма, криминал, детектив, BDRemux 1080p]

в форуме BD-Remux, Размер: 39.12 ГБ, Здоровье: 100%

Anonymous

0
5|3

143
1

25 фев 2014, 22:41

Anonymous Перейти к последнему сообщению

В этой теме нет новых непрочитанных сообщений. Скачать торрент Проверен [iPhone] Секреты Лос-Анджелеса / L.A. Confidential (Кёртис Хэнсон/ Curtis Hanson) [1997 г., Триллер, Криминал, Детектив][Rus/Eng, Sub,+ Dub/ Eng., оригинал., DVDRip, 720x320]

в форуме Фильмы для iPod, iPhone, iPad, Размер: 1.47 ГБ, Здоровье: 100%

Гость

0
3|1

27
0

14 май 2015, 00:03

Гость Перейти к последнему сообщению



Сейчас этот форум просматривают: нет зарегистрированных пользователей и гости: 1


Вы не можете начинать темы
Вы не можете отвечать на сообщения
Вы не можете редактировать свои сообщения
Вы не можете удалять свои сообщения
Вы не можете добавлять вложения

Перейти:  

!ВНИМАНИЕ!
 Ресурс не предоставляет электронные версии произведений, а занимается лишь коллекционированием и каталогизацией ссылок, присылаемых и публикуемых на форуме нашими читателями. Если вы являетесь правообладателем какого-либо представленного материала и не желаете чтобы ссылка на него находилась в нашем каталоге, свяжитесь с нами и мы незамедлительно удалим её. Файлы для обмена на трекере предоставлены пользователями сайта, и администрация не несёт ответственности за их содержание. Просьба не заливать файлы, защищенные авторскими правами, а также файлы нелегального содержания!