На всех торрентах на трекере установлена скидка на скачивание в размере 100 процентов(а).
 Возможность скачивания торрента НЕ зависит от ограничений при низком ратио, низком аплоаде, требуемом ратио или требуемом аплоаде.


Начать новую тему Ответить на тему
Статистика раздачи
Размер: 1.44 ГБ | Добавлен: 19 фев 2014, 11:43 | Скачали: 1
Сидеров: 0  [0 байт/сек]    Личеров: 0  [0 байт/сек]
Пред. тема | След. тема 

Автор
Сообщение

СообщениеДобавлено: 19 фев 2014, 11:43 


Мы - легенды / Двое в Париже / Seules Two


Страна: Франция
Жанр: комедия
Год выпуска: 2008
Продолжительность: 01:36:59
Перевод: Профессиональный (двухголосый закадровый) А. Бочаров и Е. Шестаков
Cубтитры: нет
Оригинальная аудиодорожка: нет
Режиссер: Эрик Жюдор / Eric Judor, Рамзи Бедиа / Ramzy Bedia

В ролях: Эрик Жюдор, Рамзи Бедиа, Хафид Ф. Бенамар, Элоди Буше, Кристин Скотт Томас, Бенуа Мажимель, Эдуард Баэр, Омар Си, Фред Тесто, МС Жан Габен и т.д.

Описание: Полицейский-неудачник Жерве Блондо 10 лет безрезультатно пытается поймать грабителя-рецидивиста Кёртиса и в конечном итоге становится объектом насмешек всего полицейского управления. Однажды, в очередной раз гоняясь за Кёртисом, Жерве вдруг замечает, что весь Париж вымер. В городе никого не осталось, кроме него и его давнего соперника. Проходит какое-то время, и, устав от одиночества, враги становятся друзьями.

Sample


Качество видео: HDRip
Формат видео: AVI
Видео: Xvid 720x304 23.976fps 1 925 Kbps
Аудио: Dolby AC3 48000Hz stereo 192kbps
MediaInfo
General
Complete name : D:\Фильмы\Seuls.Two.2008.DVO.HDRip.whip93.avi
Format : AVI
Format/Info : Audio Video Interleave
File size : 1.44 GiB
Duration : 1h 36mn
Overall bit rate : 2 127 Kbps
Writing application : VirtualDubMod 1.5.10.3 | http://www.virtualdub-fr.org || (build 2550/release)
Writing library : VirtualDubMod build 2550/release

Video
ID : 0
Format : MPEG-4 Visual
Format profile : Advanced Simple@L5
Format settings, BVOP : 1
Format settings, QPel : No
Format settings, GMC : No warppoints
Format settings, Matrix : Custom
Muxing mode : Packed bitstream
Codec ID : XVID
Codec ID/Hint : XviD
Duration : 1h 36mn
Bit rate : 1 925 Kbps
Width : 720 pixels
Height : 304 pixels
Display aspect ratio : 2.35:1
Frame rate : 23.976 fps
Color space : YUV
Chroma subsampling : 4:2:0
Bit depth : 8 bits
Scan type : Progressive
Compression mode : Lossy
Bits/(Pixel*Frame) : 0.367
Stream size : 1.30 GiB (91%)
Writing library : XviD 65

Audio
ID : 1
Format : AC-3
Format/Info : Audio Coding 3
Mode extension : CM (complete main)
Format settings, Endianness : Big
Codec ID : 2000
Duration : 1h 36mn
Bit rate mode : Constant
Bit rate : 192 Kbps
Channel(s) : 2 channels
Channel positions : Front: L R
Sampling rate : 48.0 KHz
Bit depth : 16 bits
Compression mode : Lossy
Stream size : 133 MiB (9%)
Alignment : Split accross interleaves
Interleave, duration : 42 ms (1.00 video frame)
Interleave, preload duration : 500 ms
Скриншоты
загрузка...
Правила, инструкции, FAQ!!!
Торрент  Добавлен [19 фев 2014, 11:43] Скачать торрент
Скачать торрент
[ Размер 15.01 КБ / Просмотров 7 ]

Статус  
 
Размер  1.44 ГБ
Приватный: Нет (DHT включён)
.torrent скачан  1
Как залить торрент? | Как скачать Torrent? | Как смотреть и слушать онлайн?  


     Отправить личное сообщение
   
Страница 1 из 1
Показать сообщения за:  Поле сортировки  
Начать новую тему Ответить на тему

   Похожие торренты   Автор   Ответы   Просмотры   Последнее сообщение 
В этой теме нет новых непрочитанных сообщений. Скачать торрент Проверен [iPad] Самба / Samba (Эрик Толедано / Eric Toledano ) [2014, Франция, Драма, комедия, BDRip, SD (576p)] DUB + Original + sub (fra)

в форуме Фильмы для iPod, iPhone, iPad, Размер: 2.08 ГБ, Здоровье: 100%

Гость

0
58|19

43
1

12 май 2015, 00:06

Гость Перейти к последнему сообщению

В этой теме нет новых непрочитанных сообщений. Скачать торрент Спросите разрешение детей! / Demandez la permission aux enfants / Kid Power (Эрик Киванян /Eric Civanyan) [2007 г., Франция, Комедия, семейный, DVDRip]

в форуме Комедии, Размер: 698.05 МБ, Здоровье: 100%

Гость

0
5|2

147
1

02 апр 2014, 08:24

Гость Перейти к последнему сообщению

В этой теме нет новых непрочитанных сообщений. Скачать торрент Как жениться и остаться холостым / Prête-moi ta main (Эрик Лартиго / Eric Lartigau) [2006 г., Комедия, HDRip]

в форуме Комедии, Размер: 1.46 ГБ, Здоровье: 0%

Anonymous

0
0|0

45
0

17 май 2014, 20:08

Anonymous Перейти к последнему сообщению

В этой теме нет новых непрочитанных сообщений. Скачать торрент Проверен [iPad] Мадагаскар 2 / Madagascar: Escape 2 Africa (Эрик Дарнелл / Eric Darnell, Том МакГрат / Tom McGrath) [2008, мультфильм, комедия, приключения, BDRip, 720p]

в форуме Фильмы для iPod, iPhone, iPad, Размер: 2.38 ГБ, Здоровье: 100%

Гость

0
35|11

53
1

13 май 2015, 23:59

Гость Перейти к последнему сообщению

В этой теме нет новых непрочитанных сообщений. Скачать торрент Проверен Монстр в Париже 3Д / Un monstre a Paris 3D (Бибо Бержерон / Bibo Bergeron) [2011, Франция, мультфильм, фэнтези, комедия, приключения, музыка, Blu-ray (custom) 1080p] BD3D

в форуме 3D Мультфильмы, Размер: 34.01 ГБ, Здоровье: 0%

Anonymous

0
0|0

1
0

07 сен 2016, 17:56

Anonymous Перейти к последнему сообщению



Сейчас этот форум просматривают: нет зарегистрированных пользователей и гости: 1


Вы не можете начинать темы
Вы не можете отвечать на сообщения
Вы не можете редактировать свои сообщения
Вы не можете удалять свои сообщения
Вы не можете добавлять вложения

Перейти:  

!ВНИМАНИЕ!
 Ресурс не предоставляет электронные версии произведений, а занимается лишь коллекционированием и каталогизацией ссылок, присылаемых и публикуемых на форуме нашими читателями. Если вы являетесь правообладателем какого-либо представленного материала и не желаете чтобы ссылка на него находилась в нашем каталоге, свяжитесь с нами и мы незамедлительно удалим её. Файлы для обмена на трекере предоставлены пользователями сайта, и администрация не несёт ответственности за их содержание. Просьба не заливать файлы, защищенные авторскими правами, а также файлы нелегального содержания!