На всех торрентах на трекере установлена скидка на скачивание в размере 100 процентов(а).
 Возможность скачивания торрента НЕ зависит от ограничений при низком ратио, низком аплоаде, требуемом ратио или требуемом аплоаде.


Начать новую тему Ответить на тему
Статистика раздачи
Размер: 740.32 МБ | Добавлен: 19 фев 2014, 09:53 | Скачали: 0
Сидеров: 0  [0 байт/сек]    Личеров: 0  [0 байт/сек]
Пред. тема | След. тема 

Автор
Сообщение

СообщениеДобавлено: 19 фев 2014, 09:53 

Одетта Тулемонд / Odette Toulemonde

Страна: Франция, Бельгия
Жанр: комедия, драма
Год выпуска: 2006
Продолжительность: 01:36:28



Перевод: Любительский (двухголосый закадровый) Доп. инфо о переводе Студия "Райдо"
Cубтитры: нет
Режиссер: Эрик-Эмманюэль Шмитт / Eric-Emmanuel Schmitt

В ролях: Катрин Фро, Альбер Дюпонтель, Жак Вебер, Ален Дуте, Камила Джепи, Фабрис Мурджа и др.

Описание: Главная героиня фильма - Одетта - обычная женщина, работающая продавцом в магазине, и вырастившая двоих детей. У Одетт есть одна страсть - книги Бальтазара Бальзана. Когда она их читает, то словно поднимается к небесам, забывая обо всём на свете. И вот она решает написать ему письмо, в котором рассказывает, какое значение в её жизни имеют его книги.
В момент сильной депрессии, вызванной изменой жены и отрицательными отзывами о его новой книге, Бальтазар находит её письмо, которое он, засунул себе в карман, несколькими днями ранее, не обратив на него особого внимания. Он находит её, и просит приютить его на время, ведь он не может больше найти своего места в жизни....

Доп. информация: Фильм снят по одноименной новелле Эрика-Эмманюэля Шмитта.
Перевод субтитров с фр. осуществлен согласно переводу Г. Соловьевой для издательского дома "Азбука-классика".

Перевод на русский язык: krijanini
Сэмпл: http://multi-up.com/753847

Сэмпл онлайн:
phpBB [media]


Качество видео: DVDRip
Формат видео: AVI

Видео: XviD, 576x240 (2.40:1), 25 fps, 871 kbps
Аудио: MPEG Audio, Layer 3, 192 Kbps, 48.0 KHz
MediaInfo
G:\torrents\Новая папка\Odette Toutlemonde.avi
General
Complete name : G:\torrents\Новая папка\Odette Toutlemonde.avi
Format : AVI
Format/Info : Audio Video Interleave
File size : 740 MiB
Duration : 1h 36mn
Overall bit rate : 1 073 Kbps
Writing application : VirtualDubMod 1.5.10.2 (build 2540/release)
Writing library : VirtualDubMod build 2540/release
Video #0
ID : 0
Format : MPEG-4 Visual
Format profile : Advanced Simple@L5
Format settings, BVOP : 2
Format settings, QPel : No
Format settings, GMC : No warppoints
Format settings, Matrix : Default (MPEG)
Codec ID : XVID
Codec ID/Hint : XviD
Duration : 1h 36mn
Bit rate : 871 Kbps
Width : 576 pixels
Height : 240 pixels
Display aspect ratio : 2.40:1
Frame rate : 25.000 fps
Color space : YUV
Chroma subsampling : 4:2:0
Bit depth : 8 bits
Scan type : Progressive
Compression mode : Lossy
Bits/(Pixel*Frame) : 0.252
Stream size : 601 MiB (81%)
Writing library : XviD 1.1.0 (UTC 2005-11-22)
Audio #1
ID : 1
Format : MPEG Audio
Format version : VerMPEG Audiosion 1
Format profile : Layer 3
Mode : Joint stereo
Codec ID : 55
Codec ID/Hint : MP3
Duration : 1h 36mn
Bit rate mode : Constant
Bit rate : 192 Kbps
Channel(s) : 2 channels
Sampling rate : 48.0 KHz
Compression mode : Lossy
Stream size : 132 MiB (18%)
Alignment : Aligned on interleaves
Interleave, duration : 40 ms (1.00 video frame)
Interleave, preload duration : 504 ms

загрузка...
Правила, инструкции, FAQ!!!
Торрент  Добавлен [19 фев 2014, 09:53] Скачать торрент
Скачать торрент
[ Размер 15.09 КБ / Просмотров 9 ]

Статус  
 
Размер  740.32 МБ
Приватный: Нет (DHT включён)
.torrent скачан  0
Как залить торрент? | Как скачать Torrent? | Как смотреть и слушать онлайн?  


     Отправить личное сообщение
   
Страница 1 из 1
Показать сообщения за:  Поле сортировки  
Начать новую тему Ответить на тему

   Похожие торренты   Автор   Ответы   Просмотры   Последнее сообщение 
В этой теме нет новых непрочитанных сообщений. Скачать торрент За сигаретами / Elle s'en va (Эмманюэль Берко / Emmanuelle Bercot) [2013, Франция, Комедия, Драма, DVDRip] MVO

в форуме Комедии, Размер: 2.05 ГБ, Здоровье: 0%

Anonymous

0
0|0

49
1

17 май 2014, 07:30

Anonymous Перейти к последнему сообщению

В этой теме нет новых непрочитанных сообщений. Скачать торрент Проверен [iPad] Самба / Samba (Эрик Толедано / Eric Toledano ) [2014, Франция, Драма, комедия, BDRip, SD (576p)] DUB + Original + sub (fra)

в форуме Фильмы для iPod, iPhone, iPad, Размер: 2.08 ГБ, Здоровье: 100%

Гость

0
58|19

43
1

12 май 2015, 00:06

Гость Перейти к последнему сообщению

В этой теме нет новых непрочитанных сообщений. Скачать торрент Как жениться и остаться холостым / Prête-moi ta main (Эрик Лартиго / Eric Lartigau) [2006 г., Комедия, HDRip]

в форуме Комедии, Размер: 1.46 ГБ, Здоровье: 0%

Anonymous

0
0|0

45
0

17 май 2014, 20:08

Anonymous Перейти к последнему сообщению

В этой теме нет новых непрочитанных сообщений. Скачать торрент Спросите разрешение детей! / Demandez la permission aux enfants / Kid Power (Эрик Киванян /Eric Civanyan) [2007 г., Франция, Комедия, семейный, DVDRip]

в форуме Комедии, Размер: 698.05 МБ, Здоровье: 100%

Гость

0
5|2

147
1

02 апр 2014, 08:24

Гость Перейти к последнему сообщению

В этой теме нет новых непрочитанных сообщений. Скачать торрент Проверен [iPad] Мадагаскар / Madagascar (Эрик Дарнелл / Eric Darnell, Том МакГрат / Tom McGrath) [2005, мультфильм, комедия, приключения, BDRip, 720p]

в форуме Фильмы для iPod, iPhone, iPad, Размер: 2.3 ГБ, Здоровье: 0%

Гость

0
0|0

52
0

18 май 2015, 10:40

Гость Перейти к последнему сообщению



Сейчас этот форум просматривают: нет зарегистрированных пользователей и гости: 1


Вы не можете начинать темы
Вы не можете отвечать на сообщения
Вы не можете редактировать свои сообщения
Вы не можете удалять свои сообщения
Вы не можете добавлять вложения

Перейти:  

!ВНИМАНИЕ!
 Ресурс не предоставляет электронные версии произведений, а занимается лишь коллекционированием и каталогизацией ссылок, присылаемых и публикуемых на форуме нашими читателями. Если вы являетесь правообладателем какого-либо представленного материала и не желаете чтобы ссылка на него находилась в нашем каталоге, свяжитесь с нами и мы незамедлительно удалим её. Файлы для обмена на трекере предоставлены пользователями сайта, и администрация не несёт ответственности за их содержание. Просьба не заливать файлы, защищенные авторскими правами, а также файлы нелегального содержания!