На всех торрентах на трекере установлена скидка на скачивание в размере 100 процентов(а).
 Возможность скачивания торрента НЕ зависит от ограничений при низком ратио, низком аплоаде, требуемом ратио или требуемом аплоаде.


Начать новую тему Ответить на тему
Статистика раздачи
Размер: 1.45 ГБ | Добавлен: 17 фев 2014, 14:14 | Скачали: 0
Сидеров: 0  [0 байт/сек]    Личеров: 0  [0 байт/сек]
Пред. тема | След. тема 

Автор
Сообщение

СообщениеДобавлено: 17 фев 2014, 14:14 

Страна: Канада
Жанр: комедия
Год выпуска: 2013

Продолжительность: 01:30:15


Перевод: Любительский (одноголосый)(qwerty)

Режиссер: Джонатан Собол / Jonathan Sobol

В ролях:

Курт Рассел (Crunch Calhoun), Джей Барушель, Кэтрин Уинник (Lola), Крис Диамантополос, Кеннет Уэлш, Джейсон Джонс, Теренс Стэмп, Мэтт Диллон (Nicky Calhoun), Девон Бостик (Ponch), Керин Двайер (Ginger), Юджин Липински, Джо Пинг (Carmen)


Описание: Фильм рассказывает о байкере-сорвиголове, специализирующемся на краже произведений искусства. Он уже было собрался завязать с преступным прошлым, но все-таки не находит в себе силы отказаться от осуществления еще одной очень заманчивой кражи вместе со своим неблагонадежным братцем. Все в итоге идет наперекосяк, поскольку оказывается, что у каждого из братьев свой план.





MPAA: R - Лицам до 17 лет обязательно присутствие взрослого


Качество: WEB-DLRip
Контейнер: AVI
Видео: XviD, 688x288 (2.40:1), 2103 kbps, 23,976 fps, 0,443 bpp
Аудио: AC3 / 2.0 / 44 kHz / 192 kbps / 16 bit



General
Complete name : E:my.ripThe.Art.of.the.Steal.2013.WEB-DLRip.by.Дядя_Лёша.avi
Format : AVI
Format/Info : Audio Video Interleave
File size : 1.45 GiB
Duration : 1h 30mn
Overall bit rate : 2 305 Kbps
Writing application : VirtualDubMod 1.5.10.3 | http://www.virtualdub-fr.org || (build 2550/release)
Writing library : VirtualDubMod build 2550/release

Video
ID : 0
Format : MPEG-4 Visual
Format profile : Advanced Simple@L5
Format settings, BVOP : 1
Format settings, QPel : No
Format settings, GMC : No warppoints
Format settings, Matrix : Custom
Codec ID : XVID
Codec ID/Hint : XviD
Duration : 1h 30mn
Bit rate : 2 103 Kbps
Width : 688 pixels
Height : 288 pixels
Display aspect ratio : 2.40:1
Frame rate : 23.976 fps
Color space : YUV
Chroma subsampling : 4:2:0
Bit depth : 8 bits
Scan type : Progressive
Compression mode : Lossy
Bits/(Pixel*Frame) : 0.443
Stream size : 1.33 GiB (91%)
Writing library : XviD 73

Audio
ID : 1
Format : AC-3
Format/Info : Audio Coding 3
Mode extension : CM (complete main)
Codec ID : 2000
Duration : 1h 30mn
Bit rate mode : Constant
Bit rate : 192 Kbps
Channel(s) : 2 channels
Channel positions : Front: L R
Sampling rate : 44.1 KHz
Bit depth : 16 bits
Compression mode : Lossy
Stream size : 124 MiB (8%)
Alignment : Split accross interleaves
Interleave, duration : 42 ms (1.00 video frame)
Interleave, preload duration : 500 ms
загрузка...
Правила, инструкции, FAQ!!!
Торрент  Добавлен [17 фев 2014, 14:14] Скачать торрент
Скачать торрент
[ Размер 15.2 КБ / Просмотров 7 ]

Статус  
 
Размер  1.45 ГБ
Приватный: Нет (DHT включён)
.torrent скачан  0
Как залить торрент? | Как скачать Torrent? | Как смотреть и слушать онлайн?  


     Отправить личное сообщение
   
Страница 1 из 1
Показать сообщения за:  Поле сортировки  
Начать новую тему Ответить на тему

   Похожие торренты   Автор   Ответы   Просмотры   Последнее сообщение 
В этой теме нет новых непрочитанных сообщений. Скачать торрент Черные метки / The Art of the Steal (2013) WEB-DL 720p | L1

в форуме 720p | 1080p, Размер: 2.87 ГБ, Здоровье: 0%

Anonymous

0
0|0

42
0

26 фев 2014, 18:09

Anonymous Перейти к последнему сообщению

В этой теме нет новых непрочитанных сообщений. Скачать торрент Черные кошки [01-12 из 12] (2013) WEB-DLRip | iPhone

в форуме Фильмы для iPod, iPhone, iPad, Размер: 2.91 ГБ, Здоровье: 100%

Anonymous

0
2|1

80
48

21 дек 2013, 08:21

Anonymous Перейти к последнему сообщению

В этой теме нет новых непрочитанных сообщений. Скачать торрент Проверен Конторович Александр - Черные бушлаты 7, Черные тропы [Сергей Ларионов (babay7) (ЛИ), 2013 г., 128 kbps, MP3]

в форуме Российская фантастика, фэнтези, мистика, ужасы, фанфики, Размер: 677.72 МБ, Здоровье: 0%

Anonymous

0
0|0

3
0

10 сен 2016, 15:29

Anonymous Перейти к последнему сообщению

В этой теме нет новых непрочитанных сообщений. Скачать торрент Проверен Конторович Александр - Черные тропы [Черная тропа] (Черные бушлаты-7) [Сергей Ларионов (babay7) (ЛИ), 2013, Фантастика, 128 kbps]

в форуме Аудиокниги (AAC, ALAC), Размер: 614.27 МБ, Здоровье: 0%

Anonymous

0
0|0

0
0

28 авг 2016, 16:55

Anonymous Перейти к последнему сообщению

В этой теме нет новых непрочитанных сообщений. Скачать торрент Уильям Рихтер | Очи черные [2013] [FB2]

в форуме Детективы и Боевики, Размер: 1.14 МБ, Здоровье: 100%

Anonymous

0
2|1

12
0

18 апр 2014, 00:21

Anonymous Перейти к последнему сообщению



Сейчас этот форум просматривают: нет зарегистрированных пользователей и гости: 2


Вы не можете начинать темы
Вы не можете отвечать на сообщения
Вы не можете редактировать свои сообщения
Вы не можете удалять свои сообщения
Вы не можете добавлять вложения

Перейти:  

!ВНИМАНИЕ!
 Ресурс не предоставляет электронные версии произведений, а занимается лишь коллекционированием и каталогизацией ссылок, присылаемых и публикуемых на форуме нашими читателями. Если вы являетесь правообладателем какого-либо представленного материала и не желаете чтобы ссылка на него находилась в нашем каталоге, свяжитесь с нами и мы незамедлительно удалим её. Файлы для обмена на трекере предоставлены пользователями сайта, и администрация не несёт ответственности за их содержание. Просьба не заливать файлы, защищенные авторскими правами, а также файлы нелегального содержания!