На всех торрентах на трекере установлена скидка на скачивание в размере 100 процентов(а).
 Возможность скачивания торрента НЕ зависит от ограничений при низком ратио, низком аплоаде, требуемом ратио или требуемом аплоаде.


Начать новую тему Ответить на тему
Статистика раздачи
Размер: 2.06 ГБ | Добавлен: 17 фев 2014, 08:03 | Скачали: 0
Сидеров: 0  [0 байт/сек]    Личеров: 0  [0 байт/сек]
Пред. тема | След. тема 

Автор
Сообщение

СообщениеДобавлено: 17 фев 2014, 08:03 

Страна: США
Жанр: комедия
Год выпуска: 2009
Продолжительность: 01:36:31

Перевод: Профессиональный (дублированный) Студия "Мосфильм"
Cубтитры: нет
Режиссер: Марк С. Уотерс / Mark Waters

В ролях: Мэттью МакКонахи, Дженнифер Гарнер, Майкл Дуглас, Эмма Стоун, Брекин Мейер, Лэйси Чэберт, Роберт Форстер, Энн Арчер, Дэниэл Санжата, Норин ДеВулф

Описание: Коннор Мид — ловелас, который может бросить трех подружек. Одновременно. По конференц-связи. Поэтому когда он попадает на свадьбу своего брата, его единственная цель — соблазнить подружку невесты, которая до сих пор еще не попалась в его сети. Но у призрака его покойного дядюшки Уэйна — того самого, кто научил его влюблять в себя женщин и бросать их — на уме совсем другое.

Он хочет возродить веру Коннора в настоящую любовь, а это действительно непростая задача, для решения которой ему потребуется помощь Призраков бывших подружек.


Качество видео: DVB
Формат видео: ts

Видео: 720x576 (4:3) @ 786x576, 25.000 fps, AVC, ~2647 Kbps, 0.254 bits/pixel
Аудио: Русский, 48.0 KHz, MPEG-1 Audio layer 2, 2 ch, 256 Kbps
MediaInfo
General
ID : 1 (0x1)
Complete name : D:\ФИЛЬМЫ\зарелизил\Призраки бывших подружек (Дубляж).ts
Format : MPEG-TS
File size : 2.06 GiB
Duration : 1h 36mn
Overall bit rate : 3 057 Kbps

Video
ID : 37 (0x25)
Menu ID : 1 (0x1)
Format : AVC
Format/Info : Advanced Video Codec
Format profile : High@L3.0
Format settings, CABAC : Yes
Format settings, ReFrames : 3 frames
Format settings, GOP : M=1, N=32
Codec ID : 27
Duration : 1h 36mn
Bit rate : 2 647 Kbps
Width : 720 pixels
Height : 576 pixels
Display aspect ratio : 4:3
Frame rate : 25.000 fps
Standard : Component
Color space : YUV
Chroma subsampling : 4:2:0
Bit depth : 8 bits
Scan type : Interlaced
Scan order : Top Field First
Bits/(Pixel*Frame) : 0.255
Stream size : 1.78 GiB (87%)
Color primaries : BT.470-6 System B, BT.470-6 System G, BT.601-6 625, BT.1358 625, BT.1700 625 PAL, BT.1700 625 SECAM
Transfer characteristics : BT.470-6 System B, BT.470-6 System G
Matrix coefficients : BT.470-6 System B, BT.470-6 System G, BT.601-6 625, BT.1358 625, BT.1700 625 PAL, BT.1700 625 SECAM, IEC 61966-2-4 601

Audio
ID : 32 (0x20)
Menu ID : 1 (0x1)
Format : MPEG Audio
Format version : Version 1
Format profile : Layer 2
Codec ID : 3
Duration : 1h 36mn
Bit rate mode : Constant
Bit rate : 256 Kbps
Channel(s) : 2 channels
Sampling rate : 48.0 KHz
Compression mode : Lossy
Stream size : 177 MiB (8%)
Language : English

загрузка...
Правила, инструкции, FAQ!!!
Торрент  Добавлен [17 фев 2014, 08:03] Скачать торрент
Скачать торрент
[ Размер 10.83 КБ / Просмотров 10 ]

Статус  
 
Размер  2.06 ГБ
Приватный: Нет (DHT включён)
.torrent скачан  0
Как залить торрент? | Как скачать Torrent? | Как смотреть и слушать онлайн?  


     Отправить личное сообщение
   
Страница 1 из 1
Показать сообщения за:  Поле сортировки  
Начать новую тему Ответить на тему

   Похожие торренты   Автор   Ответы   Просмотры   Последнее сообщение 
В этой теме нет новых непрочитанных сообщений. Скачать торрент Дрянные девчонки / Mean Girls (Марк С. Уотерс / Mark Waters) [2004 г., драма, комедия, BDRip] DUB

в форуме Драмы, Мелодрамы, Размер: 744.23 МБ, Здоровье: 100%

Anonymous

0
28|9

35
0

10 фев 2014, 13:04

Anonymous Перейти к последнему сообщению

В этой теме нет новых непрочитанных сообщений. Скачать торрент Дрянные девчонки / Mean Girls (Марк С. Уотерс / Mark Waters) [2004, комедия, драма, BDRip] Dub

в форуме Комедии, Размер: 1.45 ГБ, Здоровье: 100%

Anonymous

0
128|22

38
25

01 янв 2014, 23:12

Anonymous Перейти к последнему сообщению

В этой теме нет новых непрочитанных сообщений. Скачать торрент Дрянные девчонки / Mean Girls (Марк С. Уотерс / Mark Waters) [2004 г., комедия, драма, HDRip-AVC] Dub + original + sub

в форуме 720p | 1080p, Размер: 1.45 ГБ, Здоровье: 100%

Anonymous

0
29|10

43
1

10 фев 2014, 13:04

Anonymous Перейти к последнему сообщению

В этой теме нет новых непрочитанных сообщений. Скачать торрент Проверен [iPad] Дрянные девчонки / Mean Girls (Марк С. Уотерс / Mark Waters) [2004, драма, комедия, BDRip, 1024x]

в форуме Фильмы для iPod, iPhone, iPad, Размер: 2.69 ГБ, Здоровье: 100%

Гость

0
8|2

25
0

12 май 2015, 00:08

Гость Перейти к последнему сообщению

В этой теме нет новых непрочитанных сообщений. Скачать торрент Проверен [iPad] Пингвины мистера Поппера / Mr. Popper's Penguins (Марк С. Уотерс / Mark Waters) [ 2011, комедия, семейный, BDRip, 720p]

в форуме Фильмы для iPod, iPhone, iPad, Размер: 2.28 ГБ, Здоровье: 100%

Гость

0
5|2

94
0

14 май 2015, 00:21

Гость Перейти к последнему сообщению



Сейчас этот форум просматривают: нет зарегистрированных пользователей и гости: 2


Вы не можете начинать темы
Вы не можете отвечать на сообщения
Вы не можете редактировать свои сообщения
Вы не можете удалять свои сообщения
Вы не можете добавлять вложения

Перейти:  

!ВНИМАНИЕ!
 Ресурс не предоставляет электронные версии произведений, а занимается лишь коллекционированием и каталогизацией ссылок, присылаемых и публикуемых на форуме нашими читателями. Если вы являетесь правообладателем какого-либо представленного материала и не желаете чтобы ссылка на него находилась в нашем каталоге, свяжитесь с нами и мы незамедлительно удалим её. Файлы для обмена на трекере предоставлены пользователями сайта, и администрация не несёт ответственности за их содержание. Просьба не заливать файлы, защищенные авторскими правами, а также файлы нелегального содержания!