На всех торрентах на трекере установлена скидка на скачивание в размере 100 процентов(а).
 Возможность скачивания торрента НЕ зависит от ограничений при низком ратио, низком аплоаде, требуемом ратио или требуемом аплоаде.


Начать новую тему Ответить на тему
Статистика раздачи
Размер: 1.4 ГБ | Добавлен: 14 фев 2014, 07:45 | Скачали: 3
Сидеров: 9  [0 байт/сек]    Личеров: 1  [0 байт/сек]
Пред. тема | След. тема 

Автор
Сообщение

СообщениеДобавлено: 14 фев 2014, 07:45 

Завтра я выхожу замуж / Demain je me marie

Страна: Франция
Студия: Aubes Productions
Жанр: Комедия
Год выпуска: 2010
Продолжительность: 01:29:10

Перевод: Профессиональный (многоголосый закадровый) Еврокино
Cубтитры: нет
Оригинальная аудиодорожка: нет

Режиссер: Винсент Джованни / Vincent Giovanni

В ролях: Дельфин Шанеак, Сагамор Стевенен, Жан-Шарль Шагашбанян, Мари-Кристин Адам, Гийом Делорм, Катрин Жакоб, Жемима Вест, Эльза Кикоин, Элоди Эм, Франсис Рено

Описание: Манон завтра выходит замуж. В спешке со своими последними свадебными приготовлениями, она сталкивается на улице с незнакомцем, который клянется, что она та самая "любовь всей его жизни". Манон не обращает внимания на странного незнакомца и возвращается домой к своим делам, хотя несколько обеспокоенная встречей. Ее жених Уильям знакомит ее со своим другом Жюльеном. Каково же ее удивление, когда она узнает что Жюльен - тот самый незнакомец. Но он дает ей знать, что спонтанное признание было лишь флиртом. Но когда Манон осознает, что у нее с Жюльеном много общего и она действительно могла бы быть "любовью всей его жизни", она начинает сомневаться в браке с Уильямом. У нее лишь одна ночь, чтобы принять решение...



IMDB

Качество видео: SATRip
Формат видео: AVI

Видео: DivX 5 720x400 (16:9) 25.00fps Bit rate 2050 Kbps Bits/(Pixel*Frame) 0.285
Аудио: Dolby AC3 48000Hz 2ch 192kbps
MediaInfo
General
Complete name : D:\Satrip\Фильмы\_Новые\Завтра я выхожу замуж\Zavtra.Ya.Wyhozhu.Zamuzh_satrip_by_vedigo .avi
Format : AVI
Format/Info : Audio Video Interleave
File size : 1.40 GiB
Duration : 1h 29mn
Overall bit rate : 2 252 Kbps
Writing library : VirtualDub build 32842/release

Video
ID : 0
Format : MPEG-4 Visual
Format settings, BVOP : 1
Format settings, QPel : No
Format settings, GMC : No warppoints
Format settings, Matrix : Default (H.263)
Muxing mode : Packed bitstream
Codec ID : DX50
Codec ID/Hint : DivX 5
Duration : 1h 29mn
Bit rate : 2 050 Kbps
Width : 720 pixels
Height : 400 pixels
Display aspect ratio : 16:9
Frame rate : 25.000 fps
Color space : YUV
Chroma subsampling : 4:2:0
Bit depth : 8 bits
Scan type : Progressive
Compression mode : Lossy
Bits/(Pixel*Frame) : 0.285
Stream size : 1.28 GiB (91%)
Writing library : DivX 6.1.0 (UTC 2005-12-12)

Audio
ID : 1
Format : AC-3
Format/Info : Audio Coding 3
Mode extension : CM (complete main)
Codec ID : 2000
Duration : 1h 29mn
Bit rate mode : Constant
Bit rate : 192 Kbps
Channel(s) : 2 channels
Channel positions : Front: L R
Sampling rate : 48.0 KHz
Bit depth : 16 bits
Compression mode : Lossy
Stream size : 122 MiB (9%)
Alignment : Aligned on interleaves
Interleave, duration : 40 ms (1.00 video frame)
Interleave, preload duration : 512 ms
Скриншот c названием фильма
Скриншоты
загрузка...
Правила, инструкции, FAQ!!!
Торрент  Добавлен [14 фев 2014, 07:45] Скачать торрент
Скачать торрент
[ Размер 14.63 КБ / Просмотров 20 ]

Статус  
 
Размер  1.4 ГБ
Приватный: Нет (DHT включён)
.torrent скачан  3
Как залить торрент? | Как скачать Torrent? | Как смотреть и слушать онлайн?  


     Отправить личное сообщение
   
Страница 1 из 1
Показать сообщения за:  Поле сортировки  
Начать новую тему Ответить на тему

   Похожие торренты   Автор   Ответы   Просмотры   Последнее сообщение 
В этой теме нет новых непрочитанных сообщений. Скачать торрент Проверен Уильям Винсент / William Vincent (2010) BDRip-AVC

в форуме Драмы, Мелодрамы, Размер: 1.45 ГБ, Здоровье: 100%

Anonymous

0
4|0

46
17

05 июл 2014, 12:18

Anonymous Перейти к последнему сообщению

В этой теме нет новых непрочитанных сообщений. Скачать торрент Вместе - это слишком / Ensemble, c'est trop (Леа Фазер / Lea Fazer) [2010, Франция, комедия, SATRip]

в форуме Комедии, Размер: 1.37 ГБ, Здоровье: 0%

Anonymous

0
0|0

26
0

17 фев 2014, 11:44

Anonymous Перейти к последнему сообщению

В этой теме нет новых непрочитанных сообщений. Скачать торрент Влюблен до беспамятства / Tombé sur la tête (Дидье Альбер / Didier Albert) [2010, Франция, Швейцария, Комедия, SATRip]

в форуме Комедии, Размер: 1.42 ГБ, Здоровье: 100%

Anonymous

0
3|0

40
1

14 апр 2014, 09:28

Anonymous Перейти к последнему сообщению

В этой теме нет новых непрочитанных сообщений. Скачать торрент Винсент хочет к морю / Vincent will Meer (Ральф Хюттнер / Ralf Huettner) [2010, Германия, драма, HDRip] DVO ( ViruseProject )

в форуме Драмы, Мелодрамы, Размер: 1.46 ГБ, Здоровье: 100%

Anonymous

0
19|6

22
0

15 апр 2014, 08:17

Anonymous Перейти к последнему сообщению

В этой теме нет новых непрочитанных сообщений. Скачать торрент Как все / Comme les autres / Baby Love (Венсан Гаренк / Vincent Garenq) [2008, Франция, Романтическая комедия, Гей-тема, DVDRip]

в форуме Комедии, Размер: 736.23 МБ, Здоровье: 100%

Anonymous

0
5|1

49
0

02 апр 2014, 08:25

Anonymous Перейти к последнему сообщению



Сейчас этот форум просматривают: нет зарегистрированных пользователей и гости: 1


Вы не можете начинать темы
Вы не можете отвечать на сообщения
Вы не можете редактировать свои сообщения
Вы не можете удалять свои сообщения
Вы не можете добавлять вложения

Перейти:  

!ВНИМАНИЕ!
 Ресурс не предоставляет электронные версии произведений, а занимается лишь коллекционированием и каталогизацией ссылок, присылаемых и публикуемых на форуме нашими читателями. Если вы являетесь правообладателем какого-либо представленного материала и не желаете чтобы ссылка на него находилась в нашем каталоге, свяжитесь с нами и мы незамедлительно удалим её. Файлы для обмена на трекере предоставлены пользователями сайта, и администрация не несёт ответственности за их содержание. Просьба не заливать файлы, защищенные авторскими правами, а также файлы нелегального содержания!