На всех торрентах на трекере установлена скидка на скачивание в размере 100 процентов(а).
 Возможность скачивания торрента НЕ зависит от ограничений при низком ратио, низком аплоаде, требуемом ратио или требуемом аплоаде.


Начать новую тему Ответить на тему
Статистика раздачи
Размер: 1.46 ГБ | Добавлен: 14 фев 2014, 07:43 | Скачали: 0
Сидеров: 26  [0 байт/сек]    Личеров: 10  [0 байт/сек]
Пред. тема | След. тема 

Автор
Сообщение

СообщениеДобавлено: 14 фев 2014, 07:43 

Веселые и загорелые / Les bronzés 3: amis pour la vie

Страна: Франция
Жанр: комедия
Год выпуска: 2006
Продолжительность: 01:36:20

Перевод: Профессиональный (многоголосый закадровый)
Cубтитры: нет
Режиссер: Патрис Леконт / Patrice Leconte

В ролях: Жерар Жино, Жозиан Баласко, Кристиан Клавье, Мишель Блан, Орнелла Мути, Тьерри Лермитт...

Описание: С момента встречи в Клаб Мед на Кот-д’Ивуар в конце семидесятых их тепло называют «Загорелыми». Несведущий управляющий курортом и неверный муж Попая, грудастая Джиги, пластический хирург, потерявший свою врачебную практику Жерома, удачливый продавец париков и невротик Жан-Клод, старомодный, вечно в состоянии стресса оптик Бернар, его пьяница-жена Натали и, наконец, вечно недовольная, находящаяся в поисках мести Кристиан встречаются на летнем отдыхе на одном из роскошных итальянских курортов, где их ждут совершенно непредсказуемые и невероятные приключения…



Сэмпл: http://onemove.ru/26941/

Качество видео: HDTVRip
Формат видео: AVI

Видео: 720x304 (2.37:1), 24.000 fps, XviD build 50 ~1774 kbps avg, 0.34 bit/pixel
Аудио: 48 kHz, AC3 Dolby Digital, 3/2 (L,C,R,l,r) + LFE ch, ~384.00 kbps avg
MediaInfo
D:\ФИЛЬМЫ\Veselye i zagorelye_[rutracker.org]_by_RAmiRA.avi
General
Complete name : D:\ФИЛЬМЫ\Veselye i zagorelye_[rutracker.org]_by_RAmiRA.avi
Format : AVI
Format/Info : Audio Video Interleave
File size : 1.46 GiB
Duration : 1h 36mn
Overall bit rate : 2 168 Kbps
Writing application : VirtualDubModRus 1.5.10.2 (build 2540/release)
Writing library : VirtualDubMod build 2540/release
Video
Format : MPEG-4 Visual
Format profile : Streaming Video@L1
Format settings, BVOP : Yes
Format settings, QPel : No
Format settings, GMC : No warppoints
Format settings, Matrix : Default
Codec ID : XVID
Codec ID/Hint : XviD
Duration : 1h 36mn
Bit rate : 1 774 Kbps
Width : 720 pixels
Height : 304 pixels
Display aspect ratio : 2.35
Frame rate : 24.000 fps
Resolution : 24 bits
Colorimetry : 4:2:0
Scan type : Progressive
Bits/(Pixel*Frame) : 0.338
Stream size : 1.19 GiB (82%)
Writing library : XviD 50
Audio
Format : AC-3
Format/Info : Audio Coding 3
Codec ID : 2000
Duration : 1h 36mn
Bit rate mode : Constant
Bit rate : 384 Kbps
Channel(s) : 6 channels
Channel positions : Front: L C R, Surround: L R, LFE
Sampling rate : 48.0 KHz
Stream size : 265 MiB (18%)
Alignment : Split accross interleaves
Interleave, duration : 42 ms (1.00 video frame)
Interleave, preload duration : 500 ms
Скриншот c названием фильма
Скриншоты
загрузка...
Правила, инструкции, FAQ!!!
Торрент  Добавлен [14 фев 2014, 07:43] Скачать торрент
Скачать торрент
[ Размер 15.09 КБ / Просмотров 15 ]

Статус  
 
Размер  1.46 ГБ
Приватный: Нет (DHT включён)
.torrent скачан  0
Как залить торрент? | Как скачать Torrent? | Как смотреть и слушать онлайн?  


     Отправить личное сообщение
   
Страница 1 из 1
Показать сообщения за:  Поле сортировки  
Начать новую тему Ответить на тему

   Похожие торренты   Автор   Ответы   Просмотры   Последнее сообщение 
В этой теме нет новых непрочитанных сообщений. Скачать торрент Проверен Магазинчик самоубийств в 3Д / Le magasin des suicides 3D (Патрис Леконт / Patrice Leconte) [2012, Мультфильм, Мюзикл, Комедия, BDrip, 1080p] OverUnder / Вертикальная стереопара

в форуме 3D Мультфильмы, Размер: 8.5 ГБ, Здоровье: 0%

Anonymous

0
0|0

3
0

07 сен 2016, 17:43

Anonymous Перейти к последнему сообщению

В этой теме нет новых непрочитанных сообщений. Скачать торрент Проверен Магазинчик самоубийств в 3Д / Le magasin des suicides / The Suicide Shop 3D (Патрис Леконт / Patrice Leconte) [2012, Мультфильм, Мюзикл, Комедия, BDrip-AVC] Half OverUnder / Вертикальная анаморфная стереопара

в форуме 3D Мультфильмы, Размер: 6.33 ГБ, Здоровье: 0%

Anonymous

0
0|0

2
0

07 сен 2016, 18:12

Anonymous Перейти к последнему сообщению

В этой теме нет новых непрочитанных сообщений. Скачать торрент Проверен Загорелые на лыжах / Les bronzés font du ski (1979) DVDRip-AVC | P2

в форуме Комедии, Размер: 2.08 ГБ, Здоровье: 7%

Гость

0
1|14

1312
1

27 дек 2015, 22:20

Гость Перейти к последнему сообщению

В этой теме нет новых непрочитанных сообщений. Скачать торрент Нью-Йоркское такси / Taxi / New York Taxi (Тим Стори / Tim Story) [2004, США, Франция, Криминальная комедия, HDTVRip] Dub

в форуме Комедии, Размер: 1.37 ГБ, Здоровье: 100%

Anonymous

0
10|3

33
0

29 апр 2014, 13:55

Anonymous Перейти к последнему сообщению

В этой теме нет новых непрочитанных сообщений. Скачать торрент Шайтан / Sheitan (Ким Шапирон / Kim Shapiron) [2006, Франция, ужасы, комедия, триллер, DVDRip] DUB + sub rus+ original fre

в форуме Ужасы, Размер: 1.73 ГБ, Здоровье: 0%

Anonymous

0
0|0

29
0

04 фев 2014, 21:24

Anonymous Перейти к последнему сообщению



Сейчас этот форум просматривают: нет зарегистрированных пользователей и гости: 1


Вы не можете начинать темы
Вы не можете отвечать на сообщения
Вы не можете редактировать свои сообщения
Вы не можете удалять свои сообщения
Вы не можете добавлять вложения

Перейти:  

!ВНИМАНИЕ!
 Ресурс не предоставляет электронные версии произведений, а занимается лишь коллекционированием и каталогизацией ссылок, присылаемых и публикуемых на форуме нашими читателями. Если вы являетесь правообладателем какого-либо представленного материала и не желаете чтобы ссылка на него находилась в нашем каталоге, свяжитесь с нами и мы незамедлительно удалим её. Файлы для обмена на трекере предоставлены пользователями сайта, и администрация не несёт ответственности за их содержание. Просьба не заливать файлы, защищенные авторскими правами, а также файлы нелегального содержания!