На всех торрентах на трекере установлена скидка на скачивание в размере 100 процентов(а).
 Возможность скачивания торрента НЕ зависит от ограничений при низком ратио, низком аплоаде, требуемом ратио или требуемом аплоаде.


Начать новую тему Ответить на тему
Статистика раздачи
Размер: 1.67 ГБ | Добавлен: 13 фев 2014, 11:40 | Скачали: 0
Сидеров: 0  [0 байт/сек]    Личеров: 0  [0 байт/сек]
Пред. тема | След. тема 

Автор
Сообщение

СообщениеДобавлено: 13 фев 2014, 11:40 

Группиз не остаются на завтрак / Groupies bleiben nicht zum Frühstück (Fruehstueck)

Год выпуска: 2010
Страна: Германия
Выпущено: SamFilm GmbH, Chris Creatures
Жанр: Комедия
Продолжительность: 01:39:54
Перевод: Любительский (многоголосый, закадровый) RG.Paravozik
Субтитры: Русские (форсированные)
Режиссер: Марк Ротемунд / Marc Rothemund
В ролях: Анна Фишер, Костя Ульманн, Инка Фридрих, Эмбер Бонгард, Нина Гуммих,
Роман Книжка, Бен Браун, Джозеф Маттес, Michael Keseroglu, Франциска Вульф.
Описание: После года, проведенного в США в качестве студентки по обмену, 17-летняя Лила возвращается домой в Германию, где влюбляется в привлекательного молодого человека по имени Крис. То чего Лила изначально не знала: за год ее отсутствия в Германии появилась молодежная супер-популярная группа, в одночасье добившаяся огромного успеха среди подростков. Слава группы еще не дошла до США, но в Германии они стали мега-звездами, а солистом группы как раз и является Крис. Когда Лила узнает об этом, трудности неизбежны. К тому же, Крис разделяет чувства Лилы к превеликому ужасу своего менеджера: по контракту Крису запрещено иметь подружек, так это испортит его имидж одинокого красавчика. Есть ли шанс у любви Лилы и Криса?

Качество: DVDRip
Формат: AVI
Видео кодек: XviD
Аудио кодек: AC3
Видео: XviD; 704x384 (16:9), 25.000 fps, XviD build 50 ~1496 kbps avg, 0.221 bit/pixel
Аудио 1: Rus; AC3; 48,0 КГц; 448 Кбит/сек; 6ch (Front: L C R, Side: L R, LFE)
Аудио 2: Ger; AC3; 48,0 КГц; 448 Кбит/сек; 6ch (Front: L C R, Side: L R, LFE) отдельным файлом
Субтитры: Rus; SRT; отдельным файлом
Релиз от:

Перевод - Tata
Субтитры - Haylie
Подбор релиза - МЕГАПЫХАРЬ
Сведение и Мастеринг - grosvenor; _parovoz_
Закадровый текст - NEMIROFF_; Sonyks; Скетчер; ИринаЮС; Кукуева Елена; grosvenor
MediaInfo
C:\Groupies.bleiben.nicht.zum.Fruehstueck.2010.XviD.DVDRip.RG.paravozik.avi
General
Complete name : C:\Groupies.bleiben.nicht.zum.Fruehstueck.2010.XviD.DVDRip.RG.paravozik.avi
Format : AVI
Format/Info : Audio Video Interleave
File size : 1.36 GiB
Duration : 1h 39mn
Overall bit rate : 1 949 Kbps
Writing application : Nandub v2.01 The advanced compression technology is developed by Neiromaster
Writing library : Nandub 2.01 modified by Neiromaster
Video #0
ID : 0
Format : MPEG-4 Visual
Format profile : Advanced Simple@L5
Format settings, BVOP : Yes
Format settings, QPel : No
Format settings, GMC : No warppoints
Format settings, Matrix : Default (H.263)
Codec ID : XVID
Codec ID/Hint : XviD
Duration : 1h 39mn
Bit rate : 1 496 Kbps
Width : 704 pixels
Height : 384 pixels
Display aspect ratio : 16:9
Frame rate : 25.000 fps
Resolution : 8 bits
Colorimetry : 4:2:0
Scan type : Progressive
Bits/(Pixel*Frame) : 0.221
Stream size : 1.04 GiB (77%)
Writing library : XviD 1.2.1 (UTC 2008-12-04)
Audio #1
ID : 1
Format : AC-3
Format/Info : Audio Coding 3
Codec ID : 2000
Duration : 1h 39mn
Bit rate mode : Constant
Bit rate : 448 Kbps
Channel(s) : 6 channels
Channel positions : Front: L C R, Surround: L R, LFE
Sampling rate : 48.0 KHz
Stream size : 320 MiB (23%)
Alignment : Split accross interleaves
Interleave, duration : 200 ms (5.00 video frames)
Interleave, preload duration : 200 ms
Скриншот с названием фильма
Скриншоты
загрузка...
Правила, инструкции, FAQ!!!
Торрент  Добавлен [13 фев 2014, 11:40] Скачать торрент
Скачать торрент
[ Размер 17.61 КБ / Просмотров 12 ]

Статус  
 
Размер  1.67 ГБ
Приватный: Нет (DHT включён)
.torrent скачан  0
Как залить торрент? | Как скачать Torrent? | Как смотреть и слушать онлайн?  


     Отправить личное сообщение
   
Страница 1 из 1
Показать сообщения за:  Поле сортировки  
Начать новую тему Ответить на тему

   Похожие торренты   Автор   Ответы   Просмотры   Последнее сообщение 
В этой теме нет новых непрочитанных сообщений. Скачать торрент Сердца мужчин / Le Coeur Des Hommes (Марк Эспозито / Marc Esposito) [2003, Франция, Комедия, DVDRip] DVO Sub Rus + Original Fre

в форуме Комедии, Размер: 1.57 ГБ, Здоровье: ???%

Anonymous

0
0|1

65
0

22 апр 2014, 11:39

Anonymous Перейти к последнему сообщению

В этой теме нет новых непрочитанных сообщений. Скачать торрент Мертвые парни не кричат / Dead Boyz Don't Scream (Марк Салтарелли / Marc Saltarelli) [2006 г., комедия, ужасы, гей-тема, DVDRip]

в форуме Комедии, Размер: 859.65 МБ, Здоровье: 100%

Anonymous

0
7|3

69
0

15 апр 2014, 08:16

Anonymous Перейти к последнему сообщению

В этой теме нет новых непрочитанных сообщений. Скачать торрент Помогите, я мальчишка! / Hilfe, ich bin ein Junge! (Оливер Домменгет / Oliver Dommenget) [2003, Германия, Комедия, семейный, DVDRip] VO + Sub Rus + Original Ger

в форуме Детское, Семейное кино, Размер: 785.49 МБ, Здоровье: 100%

Anonymous

0
50|3

138
5

22 апр 2014, 11:41

Anonymous Перейти к последнему сообщению

В этой теме нет новых непрочитанных сообщений. Скачать торрент Мошенники / Повестка для Сары / Serving Sara (Реджинальд Хадлин / Reginald Hudlin) [2002, США, Германия, комедия, мелодрама, DVDRip] DUB + MVO +Sub rus, eng + original eng

в форуме Комедии, Размер: 2.19 ГБ, Здоровье: 0%

Anonymous

0
0|0

33
0

03 фев 2014, 12:32

Anonymous Перейти к последнему сообщению

В этой теме нет новых непрочитанных сообщений. Скачать торрент Проверен (Art Rock, Jazz-Funk) Real Ax Band - Nicht Stehen Bleiben / Move Your Ass In Time (1977) - 2001, FLAC (tracks+.cue), lossless

в форуме Progressive & Art-Rock, Размер: 321.88 МБ, Здоровье: 0%

Anonymous

0
0|0

0
0

01 сен 2016, 19:34

Anonymous Перейти к последнему сообщению



Сейчас этот форум просматривают: нет зарегистрированных пользователей и гости: 2


Вы не можете начинать темы
Вы не можете отвечать на сообщения
Вы не можете редактировать свои сообщения
Вы не можете удалять свои сообщения
Вы не можете добавлять вложения

Перейти:  

!ВНИМАНИЕ!
 Ресурс не предоставляет электронные версии произведений, а занимается лишь коллекционированием и каталогизацией ссылок, присылаемых и публикуемых на форуме нашими читателями. Если вы являетесь правообладателем какого-либо представленного материала и не желаете чтобы ссылка на него находилась в нашем каталоге, свяжитесь с нами и мы незамедлительно удалим её. Файлы для обмена на трекере предоставлены пользователями сайта, и администрация не несёт ответственности за их содержание. Просьба не заливать файлы, защищенные авторскими правами, а также файлы нелегального содержания!