На всех торрентах на трекере установлена скидка на скачивание в размере 100 процентов(а).
 Возможность скачивания торрента НЕ зависит от ограничений при низком ратио, низком аплоаде, требуемом ратио или требуемом аплоаде.


Начать новую тему Ответить на тему
Статистика раздачи
Размер: 1.48 ГБ | Добавлен: 13 фев 2014, 11:38 | Скачали: 0
Сидеров: 0  [0 байт/сек]    Личеров: 0  [0 байт/сек]
Пред. тема | След. тема 

Автор
Сообщение

СообщениеДобавлено: 13 фев 2014, 11:38 

Насмотревшись детективов / Watching the Detectives

Страна: США
Жанр: романтическая комедия
Год выпуска: 2007
Продолжительность: 01:34:10

Аудио: Перевод - профессиональный (двухголосый закадровый). Звук с DVD9
Cубтитры: нет

Режиссер: Пол Сотер / Paul Soter
В ролях: Киллиан Мерфи, Люси Лью, Мэттью Бэкер, Джек Бетке, Хезер Бернс, Аликс Илайас, Коннор Фукс, Джош Гад, Джоэль Гарлэнд, Дэннис Габбинс

Описание: Нейл — владелец скромного видеопроката «Крутой полицейский» и считает себя великим знатоком кино. Он живет от одного кинопросмотра до другого, но однажды встречает роскошную роковую красотку Вайолет, которая переворачивает его серый мирок вверх тормашками. Невероятные приключения так закружат Нейла, что вскоре он сам перестанет отличать кино от реальности. Готов ли Нейл начать жизнь, полную адреналина, или он вернется в свое старое кресло перед телевизором?





Релиз:
Качество видео: DVDRip с DVD5 из собственной коллекции
Формат видео: AVI

Видео: MPEG-4 XviD 65, 704х384, соотношение сторон 16:9, 23,976 кадра/сек, 1793 Кбит/сек, 0.277 Бит/(Пиксели*Кадры)
Аудио: AC-3, 48,0 КГц, 448 Кбит/сек постоянный, 6 каналов (Front: L C R, Side: L R, LFE) - DVO, профессиональный, русский (в контейнере)
MediaInfo
Общее
Полное имя : R:\_Razdacha\Насмотревшись детективов 1.48\Nasmot_detek_148_mx.avi
Формат : AVI
Формат/Информация : Audio Video Interleave
Размер файла : 1,48 Гбайт
Продолжительность : 1 ч. 34 м.
Общий поток : 2251 Кбит/сек
Программа кодирования : VirtualDubMod 1.5.10.2 (build 2540/release)
Библиотека кодирования : VirtualDubMod build 2540/release

Видео
Идентификатор : 0
Формат : MPEG-4 Visual
Профиль формата : Advanced Simple@L5
Параметр BVOP формата : 1
Параметр QPel формата : Нет
Параметр GMC формата : Без точки перехода
Параметр матрицы формата : Default (MPEG)
Идентификатор кодека : XVID
Идентификатор кодека/Подсказка : XviD
Продолжительность : 1 ч. 34 м.
Битрейт : 1793 Кбит/сек
Ширина : 704 пикселя
Высота : 384 пикселя
Соотношение сторон : 16:9
Частота кадров : 23,976 кадра/сек
Цветовое пространство : YUV
Субдискретизация насыщенности : 4:2:0
Битовая глубина : 8 бит
Тип развёртки : Прогрессивная
Метод сжатия : С потерями
Бит/(Пиксели*Кадры) : 0.277
Размер потока : 1,18 Гбайт (80%)
Библиотека кодирования : XviD 65

Аудио
Идентификатор : 1
Формат : AC-3
Формат/Информация : Audio Coding 3
Расширение режима : CM (complete main)
Идентификатор кодека : 2000
Продолжительность : 1 ч. 34 м.
Вид битрейта : Постоянный
Битрейт : 448 Кбит/сек
Каналы : 6 каналов
Расположение каналов : Front: L C R, Side: L R, LFE
Частота : 48,0 КГц
Битовая глубина : 16 бит
Метод сжатия : С потерями
Размер потока : 302 Мбайт (20%)
Выравнивание : Разделение по промежуткам
Продолжительность промежутка : 42 мс. (1,00 видеокадр)
Время предзагрузки промежутка : 500 мс.
Заголовок : Russian, DVO, AC-3, 6ch, 448kbps
Скриншоты
загрузка...
Правила, инструкции, FAQ!!!
Торрент  Добавлен [13 фев 2014, 11:38] Скачать торрент
Скачать торрент
[ Размер 15.41 КБ / Просмотров 5 ]

Статус  
 
Размер  1.48 ГБ
Приватный: Нет (DHT включён)
.torrent скачан  0
Как залить торрент? | Как скачать Torrent? | Как смотреть и слушать онлайн?  


     Отправить личное сообщение
   
Страница 1 из 1
Показать сообщения за:  Поле сортировки  
Начать новую тему Ответить на тему

   Похожие торренты   Автор   Ответы   Просмотры   Последнее сообщение 
В этой теме нет новых непрочитанных сообщений. Скачать торрент Почему бы и нет! / Dlaczego nie! (Ryszard Zatorski) [2007 г., Романтическая комедия/Мелодрама, DVDRip]

в форуме Комедии, Размер: 1.28 ГБ, Здоровье: 0%

Anonymous

0
0|0

71
0

17 май 2014, 20:05

Anonymous Перейти к последнему сообщению

В этой теме нет новых непрочитанных сообщений. Скачать торрент Проверен (New Wave, Punk, Reggae) [7"] [24/96] Elvis Costello - Watching The Detectives - 1977, FLAC (image+.cue)

в форуме Зарубежный рок (оцифровки), Размер: 186.66 МБ, Здоровье: 100%

Anonymous

0
1|0

5
0

24 авг 2016, 14:42

Anonymous Перейти к последнему сообщению

В этой теме нет новых непрочитанных сообщений. Скачать торрент Как все / Comme les autres / Baby Love (Венсан Гаренк / Vincent Garenq) [2008, Франция, Романтическая комедия, Гей-тема, DVDRip]

в форуме Комедии, Размер: 736.23 МБ, Здоровье: 100%

Anonymous

0
5|1

49
0

02 апр 2014, 08:25

Anonymous Перейти к последнему сообщению

В этой теме нет новых непрочитанных сообщений. Скачать торрент Проверен Серия "Femina" (Романтическая комедия) - 33 произведения [2004-2007, формат fb2]

в форуме Женский роман, Размер: 29.38 МБ, Здоровье: 100%

Anonymous

0
44|9

3
0

28 авг 2016, 21:00

Anonymous Перейти к последнему сообщению

В этой теме нет новых непрочитанных сообщений. Скачать торрент Проверен Серия - Городская романтическая комедия [2009 - 2010, FB2, RUS]

в форуме Женский роман, Размер: 10.33 МБ, Здоровье: 100%

Anonymous

0
8|2

2
0

28 авг 2016, 20:57

Anonymous Перейти к последнему сообщению



Сейчас этот форум просматривают: нет зарегистрированных пользователей и гости: 1


Вы не можете начинать темы
Вы не можете отвечать на сообщения
Вы не можете редактировать свои сообщения
Вы не можете удалять свои сообщения
Вы не можете добавлять вложения

Перейти:  

!ВНИМАНИЕ!
 Ресурс не предоставляет электронные версии произведений, а занимается лишь коллекционированием и каталогизацией ссылок, присылаемых и публикуемых на форуме нашими читателями. Если вы являетесь правообладателем какого-либо представленного материала и не желаете чтобы ссылка на него находилась в нашем каталоге, свяжитесь с нами и мы незамедлительно удалим её. Файлы для обмена на трекере предоставлены пользователями сайта, и администрация не несёт ответственности за их содержание. Просьба не заливать файлы, защищенные авторскими правами, а также файлы нелегального содержания!