На всех торрентах на трекере установлена скидка на скачивание в размере 100 процентов(а).
 Возможность скачивания торрента НЕ зависит от ограничений при низком ратио, низком аплоаде, требуемом ратио или требуемом аплоаде.


Начать новую тему Ответить на тему
Статистика раздачи
Размер: 1.74 ГБ | Добавлен: 12 фев 2014, 08:18 | Скачали: 0
Сидеров: 0  [0 байт/сек]    Личеров: 0  [0 байт/сек]
Пред. тема | След. тема 

Автор
Сообщение

СообщениеДобавлено: 12 фев 2014, 08:18 

Как заняться любовью с женщиной / How to Make Love to a Woman
«A comedy about miscommunication between the sheets»
Страна: США
Жанр: комедия
Год выпуска: 2010
Продолжительность: 01:31:00

Перевод: Профессиональный (многоголосый закадровый) [Лицензия]

Cубтитры: русские ( внешние, 2 вида, srt), английские ( внешние, srt )
Оригинальная дорожка: английский
Режиссер: Скотт Калвер / Scott Culver

В ролях: Джош Мейерс, Кристен Риттер, Юджин Бирд, Иен Сомерхолдер, Линдси Ричардс, Катрин Рейтман, Нора Киркпатрик, Кен Жонг, Джеймс, Кайсон Ли, Айк Баринхолц, Дженна Джеймсон
Группа
желает всем приятного просмотра! Описание: Энди не может удовлетворить свою подругу Лоурен. Ситуация осложняется, когда на горизонте неожиданно появляется друг детства Лоурен, красавец Даниэль. Энди в срочном порядке обращается за помощью к своим друзьям музыкантам.

Размер: 1/3 DVD
Исходник: BDRip 720p

Качество видео: HDRip
Формат видео: AVI

Видео: 720x400 (1.80:1), 23.976 fps, XviD build 62 ~1817 kbps avg, 0.26 bit/pixel
Аудио#1: 48 kHz, AC3 Dolby Digital, 3/2 (L,C,R,l,r) + LFE ch, ~448.00 kbps avg [rus]
Аудио#2: 48 kHz, AC3 Dolby Digital, 3/2 (L,C,R,l,r) + LFE ch, ~448.00 kbps avg [original] - отдельным файлом
MediaInfo
General
Complete name : C:\Documents and Settings\Администратор\Рабочий стол\How to Make Love to a Woman.HDRip.R.G.Torrents.Ru_Drek.avi
Format : AVI
Format/Info : Audio Video Interleave
File size : 1.45 GiB
Duration : 1h 31mn
Overall bit rate : 2 275 Kbps
Writing application : VirtualDubModRus 1.5.10.2 (build 2542/release)
Writing library : VirtualDubMod build 2542/release

Video
ID : 0
Format : MPEG-4 Visual
Format profile : Advanced Simple@L5
Format settings, BVOP : 1
Format settings, QPel : No
Format settings, GMC : No warppoints
Format settings, Matrix : Custom
Codec ID : XVID
Codec ID/Hint : XviD
Duration : 1h 31mn
Bit rate : 1 818 Kbps
Width : 720 pixels
Height : 400 pixels
Display aspect ratio : 16:9
Frame rate : 23.976 fps
Color space : YUV
Chroma subsampling : 4:2:0
Bit depth : 8 bits
Scan type : Progressive
Compression mode : Lossy
Bits/(Pixel*Frame) : 0.263
Stream size : 1.16 GiB (80%)
Writing library : XviD 62

Audio
ID : 1
Format : AC-3
Format/Info : Audio Coding 3
Mode extension : CM (complete main)
Codec ID : 2000
Duration : 1h 31mn
Bit rate mode : Constant
Bit rate : 448 Kbps
Channel(s) : 6 channels
Channel positions : Front: L C R, Side: L R, LFE
Sampling rate : 48.0 KHz
Bit depth : 16 bits
Compression mode : Lossy
Stream size : 293 MiB (20%)
Alignment : Split accross interleaves
Interleave, duration : 42 ms (1.00 video frame)
Interleave, preload duration : 500 ms
Скриншоты
загрузка...
Правила, инструкции, FAQ!!!
Торрент  Добавлен [12 фев 2014, 08:18] Скачать торрент
Скачать торрент
[ Размер 36.16 КБ / Просмотров 9 ]

Статус  
 
Размер  1.74 ГБ
Приватный: Нет (DHT включён)
.torrent скачан  0
Как залить торрент? | Как скачать Torrent? | Как смотреть и слушать онлайн?  


     Отправить личное сообщение
   
Страница 1 из 1
Показать сообщения за:  Поле сортировки  
Начать новую тему Ответить на тему

   Похожие торренты   Автор   Ответы   Просмотры   Последнее сообщение 
В этой теме нет новых непрочитанных сообщений. Скачать торрент Неуправляемый / Unstoppable (Тони Скотт / Tony Scott) [2010, США, боевик, триллер, драма, HDRip] Dub + Original + Rus Sub + Eng Sub

в форуме Боевики, Размер: 2.1 ГБ, Здоровье: 100%

Anonymous

0
8|2

39
0

14 фев 2014, 07:45

Anonymous Перейти к последнему сообщению

В этой теме нет новых непрочитанных сообщений. Скачать торрент Совокупность лжи / Body of Lies (Ридли Скотт / Ridley Scott) [2008, Боевик, триллер, драма, BDRip] AVO (Гаврилов) + Original (Eng) + Subs (Rus, Eng)

в форуме Боевики, Размер: 1.47 ГБ, Здоровье: 100%

Anonymous

0
25|8

72
0

06 фев 2014, 11:45

Anonymous Перейти к последнему сообщению

В этой теме нет новых непрочитанных сообщений. Скачать торрент Гладиатор / Gladiator (Ридли Скотт / Ridley Scott) [2000 г., боевик, драма, приключения, BDRip] [Расширенная версия / Extended Cut] Dub + Original + Subs (Rus x2, Eng x2)

в форуме Боевики, Размер: 3.45 ГБ, Здоровье: 0%

Anonymous

0
0|0

96
0

18 дек 2013, 09:59

Anonymous Перейти к последнему сообщению

В этой теме нет новых непрочитанных сообщений. Скачать торрент Привет, Джули! / Flipped (Роб Райнер / Rob Reiner) [2010, США, комедия, мелодрама, драма, HDRip-AVC] MVO (R5) + Original + subs

в форуме 720p | 1080p, Размер: 1.45 ГБ, Здоровье: 100%

Anonymous

0
56|19

36
0

07 фев 2014, 11:43

Anonymous Перейти к последнему сообщению

В этой теме нет новых непрочитанных сообщений. Скачать торрент Пипец / Kick-Ass (Мэттью Вон / Matthew Vaughn) [2010, США, Великобритания, боевик, триллер, криминал, комедия, HDRip-AVC] DUB + Original (Eng) + Subs (6xRus,2xEng)

в форуме 720p | 1080p, Размер: 808.32 МБ, Здоровье: 100%

Anonymous

0
16|5

34
0

13 фев 2014, 06:33

Anonymous Перейти к последнему сообщению



Сейчас этот форум просматривают: нет зарегистрированных пользователей и гости: 1


Вы не можете начинать темы
Вы не можете отвечать на сообщения
Вы не можете редактировать свои сообщения
Вы не можете удалять свои сообщения
Вы не можете добавлять вложения

Перейти:  

!ВНИМАНИЕ!
 Ресурс не предоставляет электронные версии произведений, а занимается лишь коллекционированием и каталогизацией ссылок, присылаемых и публикуемых на форуме нашими читателями. Если вы являетесь правообладателем какого-либо представленного материала и не желаете чтобы ссылка на него находилась в нашем каталоге, свяжитесь с нами и мы незамедлительно удалим её. Файлы для обмена на трекере предоставлены пользователями сайта, и администрация не несёт ответственности за их содержание. Просьба не заливать файлы, защищенные авторскими правами, а также файлы нелегального содержания!