На всех торрентах на трекере установлена скидка на скачивание в размере 100 процентов(а).
 Возможность скачивания торрента НЕ зависит от ограничений при низком ратио, низком аплоаде, требуемом ратио или требуемом аплоаде.


Начать новую тему Ответить на тему
Статистика раздачи
Размер: 1.41 ГБ | Добавлен: 11 фев 2014, 09:18 | Скачали: 0
Сидеров: 0  [0 байт/сек]    Личеров: 0  [0 байт/сек]
Пред. тема | След. тема 

Автор
Сообщение

СообщениеДобавлено: 11 фев 2014, 09:18 

Ночь с Бет Купер / I Love You, Beth Cooper

Страна: США, Канада
Студия: Fox Atomic, 1492 Pictures, Bece Canada Productions
Жанр: комедия
Год выпуска: 2009
Продолжительность: 01:32:38

Перевод: Профессиональный (многоголосый закадровый) 1 канал
Cубтитры: нет
Оригинальная аудиодорожка: нет

Режиссер: Крис Коламбус / Chris Columbus

В ролях: Хайден Панеттьери, Пол Руст, Джек Карпентер, Лоурен Лондон, Лоурен Сторм, Шоун Робертс, Джаред Кисо, Брендан Пенни, Мари Авгеропулос, Джош Эмерсон

Описание: Главный ботаник и неудачник класса понимает, что терять ему уже нечего, поэтому он использует свою речь на церемонии вручения дипломов для того, чтобы публично признаться в любви к Бет Купер, королеве красоты и капитану чирлидерш. После чего вместе с девушкой оказывается вовлечен в серию злоключений.



IMDB

Качество видео: HDTVRip
Формат видео: AVI

Видео: XviD 720x400 (16:9) 25.0fps Bit rate 1947Kbps b/p 0.270
Аудио: AC3 48.0KHz 2ch 224 Kbps
MediaInfo
General
Complete name : E:\torrent\Noch.s.Bet.Kuper_HDTVrip.avi
Format : AVI
Format/Info : Audio Video Interleave
File size : 1.41 GiB
Duration : 1h 32mn
Overall bit rate : 2 181 Kbps
Writing library : VirtualDub build 32842/release

Video
ID : 0
Format : MPEG-4 Visual
Format profile : Advanced Simple@L5
Format settings, BVOP : Yes
Format settings, QPel : No
Format settings, GMC : No warppoints
Format settings, Matrix : Default (H.263)
Codec ID : XVID
Codec ID/Hint : XviD
Duration : 1h 32mn
Bit rate : 1 947 Kbps
Width : 720 pixels
Height : 400 pixels
Display aspect ratio : 16:9
Frame rate : 25.000 fps
Color space : YUV
Chroma subsampling : 4:2:0
Bit depth : 8 bits
Scan type : Progressive
Bits/(Pixel*Frame) : 0.270
Stream size : 1.26 GiB (89%)
Writing library : XviD 1.2.1 (UTC 2008-12-04)

Audio
ID : 1
Format : AC-3
Format/Info : Audio Coding 3
Mode extension : CM (complete main)
Codec ID : 2000
Duration : 1h 32mn
Bit rate mode : Constant
Bit rate : 224 Kbps
Channel(s) : 2 channels
Channel positions : Front: L R
Sampling rate : 48.0 KHz
Bit depth : 16 bits
Stream size : 148 MiB (10%)
Alignment : Aligned on interleaves
Interleave, duration : 40 ms (1.00 video frame)
Interleave, preload duration : 512 ms
Скриншот c названием фильма
Скриншоты
загрузка...
Правила, инструкции, FAQ!!!
Торрент  Добавлен [11 фев 2014, 09:18] Скачать торрент
Скачать торрент
[ Размер 14.71 КБ / Просмотров 8 ]

Статус  
 
Размер  1.41 ГБ
Приватный: Нет (DHT включён)
.torrent скачан  0
Как залить торрент? | Как скачать Torrent? | Как смотреть и слушать онлайн?  


     Отправить личное сообщение
   
Страница 1 из 1
Показать сообщения за:  Поле сортировки  
Начать новую тему Ответить на тему

   Похожие торренты   Автор   Ответы   Просмотры   Последнее сообщение 
В этой теме нет новых непрочитанных сообщений. Скачать торрент Проверен Ночь с Бет Купер / I Love You, Beth Cooper (2009) BDRip 720p | P

в форуме 720p | 1080p, Размер: 4.05 ГБ, Здоровье: 100%

Гость

0
39|11

76
41

16 ноя 2015, 00:03

Гость Перейти к последнему сообщению

В этой теме нет новых непрочитанных сообщений. Скачать торрент Гарри Поттер и философский камень / Harry Potter and the Sorcerer's Stone (Крис Коламбус / Chris Columbus) [2001, Великобритания, Фэнтези, Приключения, Семейный, BDRip-AVC] Dub

в форуме Фантастика, Фэнтези, Размер: 3.71 ГБ, Здоровье: 100%

Anonymous

0
56|19

88
0

26 апр 2014, 20:57

Anonymous Перейти к последнему сообщению

В этой теме нет новых непрочитанных сообщений. Скачать торрент Гарри Поттер и Тайная комната / Harry Potter and the Chamber of Secrets (Крис Коламбус / Chris Columbus) [2002, Великобритания, Фэнтези, Приключения, Семейный, BDRip-AVC] Dub (CEE) + MVO (Кравец) + DVO (Гланц и Королева) + Orig + Subs (Rus, Eng)

в форуме 720p | 1080p, Размер: 3.76 ГБ, Здоровье: 100%

Anonymous

0
56|19

38
1

03 фев 2014, 12:31

Anonymous Перейти к последнему сообщению

В этой теме нет новых непрочитанных сообщений. Скачать торрент Проверен [iPhone] Гарри Поттер Коллекция / Harry Potter Collection (Крис Коламбус, Альфонсо Куарон, Майк Ньюэлл, Дэвид Йэтс / Chris Columbus, Alfonso Cuarón, Mike Newell, David Yates) [2001-2011, Фэнтези, детектив, приключения, семейный, HDRip, 480х200]

в форуме Фильмы для iPod, iPhone, iPad, Размер: 6.38 ГБ, Здоровье: 100%

Anonymous

0
56|19

30
0

11 май 2015, 01:32

Anonymous Перейти к последнему сообщению

В этой теме нет новых непрочитанных сообщений. Скачать торрент Исполнитель желаний 3: Камень Дьявола / Wishmaster 3: Beyond the Gates of Hell (Крис Энджел / Chris Angel) [2001, Канада, США, фэнтези, ужасы, DVDRip]

в форуме Фантастика, Фэнтези, Размер: 1.46 ГБ, Здоровье: 100%

Anonymous

0
17|5

85
0

29 апр 2014, 13:54

Anonymous Перейти к последнему сообщению



Сейчас этот форум просматривают: нет зарегистрированных пользователей и гости: 1


Вы не можете начинать темы
Вы не можете отвечать на сообщения
Вы не можете редактировать свои сообщения
Вы не можете удалять свои сообщения
Вы не можете добавлять вложения

Перейти:  

!ВНИМАНИЕ!
 Ресурс не предоставляет электронные версии произведений, а занимается лишь коллекционированием и каталогизацией ссылок, присылаемых и публикуемых на форуме нашими читателями. Если вы являетесь правообладателем какого-либо представленного материала и не желаете чтобы ссылка на него находилась в нашем каталоге, свяжитесь с нами и мы незамедлительно удалим её. Файлы для обмена на трекере предоставлены пользователями сайта, и администрация не несёт ответственности за их содержание. Просьба не заливать файлы, защищенные авторскими правами, а также файлы нелегального содержания!