На всех торрентах на трекере установлена скидка на скачивание в размере 100 процентов(а).
 Возможность скачивания торрента НЕ зависит от ограничений при низком ратио, низком аплоаде, требуемом ратио или требуемом аплоаде.


Начать новую тему Ответить на тему
Статистика раздачи
Размер: 1.37 ГБ | Добавлен: 08 фев 2014, 21:17 | Скачали: 0
Сидеров: 18  [0 байт/сек]    Личеров: 1  [0 байт/сек]
Пред. тема | След. тема 

Автор
Сообщение

СообщениеДобавлено: 08 фев 2014, 21:17 

Добро пожаловать в джунгли / Welcome to the Jungle (2013) HDRip

Год выпуска: 2013
Производство: Пуэрто Рико, США, Великобритания | Pimienta, Salt Company International, The
Жанр: Комедия
Перевод: Двуголосый закадровый, любительский
Субтитры: Отсутствуют

Дата мировой премьеры: 27 апреля 2013

Режиссер: Роб Мелцер
Продюсер: Роберт Беван, Марк Фелдштейн, Алекс Голдстоун
Актеры: Адам Броди, Жан-Клод Ван Дамм, Роб Хюбел, Кристен Шаал, Меган Бун, Деннис Хейсбёрт, Бьянка Бри, Эрик Эдельштейн, Роберт Питерс, Аарон Такахаси

Описание фильма:
Персонал дизайнерской фирмы отправляется в отпуск на тропический остров. Коллективный отдых заканчивается самым настоящим хаосом, когда герои сталкиваются с первыми серьезными трудностями.



Продолжительность: 01:34:13
Качество видео: HDRip

Видеокодек: Xvid
Битрейт видео: ~1619 Kbps 23.98 fps
Размер кадра: 720x304
Аудиокодек: AC3 5.1
Битрейт аудио: 448 Kbps 48000 Hz
Сэмпл: Скачать
Код:
Код:
  Общее
Полное имя                               : Dobro.Pojalovat.v.Djungli.2013.P2.HDRip.1400MB.nnm-club.avi
Формат                                   : AVI
Формат/Информация                        : Audio Video Interleave
Размер файла                             : 1,37 Гбайт
Продолжительность                        : 1 ч. 34 м.
Общий поток                              : 2077 Кбит/сек
Программа кодирования                    : VirtualDubMod 1.5.10.2 (build 2540/release)
Библиотека кодирования                   : VirtualDubMod build 2540/release

Видео
Идентификатор                            : 0
Формат                                   : MPEG-4 Visual
Профиль формата                          : Advanced Simple@L5
Параметр BVOP формата                    : 2
Параметр QPel формата                    : Нет
Параметр GMC формата                     : Без точки перехода
Параметр матрицы формата                 : Default (MPEG)
Идентификатор кодека                     : XVID
Идентификатор кодека/Подсказка           : XviD
Продолжительность                        : 1 ч. 34 м.
Битрейт                                  : 1620 Кбит/сек
Ширина                                   : 720 пикселей
Высота                                   : 304 пикселя
Соотношение сторон                       : 2,35:1
Частота кадров                           : 23,976 кадра/сек
Цветовое пространство                    : YUV
Субдискретизация насыщенности            : 4:2:0
Битовая глубина                          : 8 бит
Тип развёртки                            : Прогрессивная
Метод сжатия                             : С потерями
Бит/(Пиксели*Кадры)                      : 0.309
Размер потока                            : 1,07 Гбайт (78%)
Библиотека кодирования                   : XviD 1.2.1 (UTC 2008-12-04)

Аудио
Идентификатор                            : 1
Формат                                   : AC-3
Формат/Информация                        : Audio Coding 3
Расширение режима                        : CM (complete main)
Параметр Endianness формата              : Big
Идентификатор кодека                     : 2000
Продолжительность                        : 1 ч. 34 м.
Вид битрейта                             : Постоянный
Битрейт                                  : 448 Кбит/сек
Каналы                                   : 6 каналов
Расположение каналов                     : Front: L C R, Side: L R, LFE
Частота                                  : 48,0 КГц
Битовая глубина                          : 16 бит
Метод сжатия                             : С потерями
Размер потока                            : 302 Мбайт (22%)
Выравнивание                             : Разделение по промежуткам
Продолжительность промежутка             : 42  мс. (1,00 видеокадр)
Время предзагрузки промежутка            : 500  мс.
Скриншоты:

загрузка...
Правила, инструкции, FAQ!!!
Торрент  Добавлен [08 фев 2014, 21:17] Скачать торрент
Скачать торрент
[ Размер 14.53 КБ / Просмотров 5 ]

Статус  
 
Размер  1.37 ГБ
Приватный: Нет (DHT включён)
.torrent скачан  0
Как залить торрент? | Как скачать Torrent? | Как смотреть и слушать онлайн?  


     Отправить личное сообщение
   
Страница 1 из 1
Показать сообщения за:  Поле сортировки  
Начать новую тему Ответить на тему

   Похожие торренты   Автор   Ответы   Просмотры   Последнее сообщение 
В этой теме нет новых непрочитанных сообщений. Скачать торрент Добро пожаловать в джунгли / Welcome to the Jungle (2013) BDRip 720p | L2

в форуме 720p | 1080p, Размер: 4.67 ГБ, Здоровье: 100%

Anonymous

0
10|0

379
8

08 фев 2014, 22:30

Anonymous Перейти к последнему сообщению

В этой теме нет новых непрочитанных сообщений. Скачать торрент Добро пожаловать в джунгли / Welcome to the Jungle (2013) BDRip 1080p | L2

в форуме 720p | 1080p, Размер: 7.44 ГБ, Здоровье: 0%

Anonymous

0
0|0

112
0

09 фев 2014, 00:12

Anonymous Перейти к последнему сообщению

В этой теме нет новых непрочитанных сообщений. Скачать торрент Добро пожаловать в капкан / Welcome to the Punch (2013) HDRip-AVC | A

в форуме 720p | 1080p, Размер: 741.08 МБ, Здоровье: 100%

Anonymous

0
9|1

170
41

23 янв 2014, 20:31

Anonymous Перейти к последнему сообщению

В этой теме нет новых непрочитанных сообщений. Скачать торрент Проверен Добро пожаловать в ПОП / Pop Redemption (2013) HDRip | P | лицензия

в форуме Комедии, Размер: 1.46 ГБ, Здоровье: 100%

Anonymous

0
7|0

76
1

28 ноя 2014, 23:47

Anonymous Перейти к последнему сообщению

В этой теме нет новых непрочитанных сообщений. Скачать торрент Добро пожаловать в капкан / Welcome to the Punch (2013) HDRip | Чистый звук

в форуме Боевики, Размер: 1.36 ГБ, Здоровье: 100%

Anonymous

0
184|5

135
1392

30 мар 2014, 14:18

Anonymous Перейти к последнему сообщению



Сейчас этот форум просматривают: нет зарегистрированных пользователей и гости: 2


Вы не можете начинать темы
Вы не можете отвечать на сообщения
Вы не можете редактировать свои сообщения
Вы не можете удалять свои сообщения
Вы не можете добавлять вложения

Перейти:  

!ВНИМАНИЕ!
 Ресурс не предоставляет электронные версии произведений, а занимается лишь коллекционированием и каталогизацией ссылок, присылаемых и публикуемых на форуме нашими читателями. Если вы являетесь правообладателем какого-либо представленного материала и не желаете чтобы ссылка на него находилась в нашем каталоге, свяжитесь с нами и мы незамедлительно удалим её. Файлы для обмена на трекере предоставлены пользователями сайта, и администрация не несёт ответственности за их содержание. Просьба не заливать файлы, защищенные авторскими правами, а также файлы нелегального содержания!