На всех торрентах на трекере установлена скидка на скачивание в размере 100 процентов(а).
 Возможность скачивания торрента НЕ зависит от ограничений при низком ратио, низком аплоаде, требуемом ратио или требуемом аплоаде.


Начать новую тему Ответить на тему
Статистика раздачи
Размер: 744.75 МБ | Добавлен: 07 фев 2014, 11:42 | Скачали: 0
Сидеров: 0  [0 байт/сек]    Личеров: 0  [0 байт/сек]
Пред. тема | След. тема 

Автор
Сообщение

СообщениеДобавлено: 07 фев 2014, 11:42 

Год выпуска: 2008
Страна: США
Жанр: Комедия, драма
Продолжительность: 1:33:20
Перевод: Профессиональный (полное дублирование)
Русские субтитры: нет
Режиссер: Фред Вульф / Fred Wolf

В ролях: Анна Фэрис, Колин Хэнкс, Эмили Стоун, Кэт Деннингз, Кэтрин МакФи, Румер Уиллис, Кили Уильямс, Дэна Мин Гудман, Кимберли Маккук, Монит Мазур
Описание: Беззаботная и красочная «ванильно-карамельная» жизнь соблазнительной девушки-модели в особняке «Плейбой» в один миг превращается в проживание в собственном полуразвалившемся автомобиле. Неожиданно звездной девушке, привыкшей относиться к себе как к очаровательному розовому зайчику — символу мужских соблазнов — выпадает уникальный шанс: вновь обрести жилье и стать предводительницей клана «серых мышек».

Девушки из студенческого общежития Альфа Зета Альфа находятся в плачевном состоянии. Странноватые, чудаковатые, неприглядные — индивидуалистки, которые твердо убеждены, что выделяться надо умом, а не внешностью. Но это убеждение может стоить им жилья. Так как общежитие может существовать лишь за счет пополнения новыми членами.

На фоне их привлекательного и яркого соперника — общежития Фи Йота Мю — у девушек нет ни малейших шансов. У них не было бы шансов, не появись у них Шелли — эксперт по популярности у парней и секретам женской привлекательности!




Качество: HDRip
Формат: AVI
Видео кодек: XviD
Аудио кодек: MP3
Видео: 656x272, 23,976 fps, 933 kbps, 0.21 bit/pixel
Аудио: 48000 Hz, 128 kbps, MPEG Layer 3, 2 ch (stereo)


Резервные скриншоты



MI
Format : AVI
Format/Info : Audio Video Interleave
File size : 745 MiB
Duration : 1h 37mn
Overall bit rate : 1 070 Kbps
Writing application : VirtualDubMod 1.5.10.2 (build 2542/release)
Writing library : VirtualDubMod build 2542/release

Video
ID : 0
Format : MPEG-4 Visual
Format profile : Advanced Simple@L5
Format settings, BVOP : Yes
Format settings, QPel : No
Format settings, GMC : No warppoints
Format settings, Matrix : Custom
Muxing mode : Packed bitstream
Codec ID : XVID
Codec ID/Hint : XviD
Duration : 1h 37mn
Bit rate : 933 Kbps
Width : 656 pixels
Height : 272 pixels
Display aspect ratio : 2.40:1
Frame rate : 23.976 fps
Color space : YUV
Chroma subsampling : 4:2:0
Bit depth : 8 bits
Scan type : Progressive
Compression mode : Lossy
Bits/(Pixel*Frame) : 0.218
Stream size : 649 MiB (87%)
Writing library : XviD 63

Audio
ID : 1
Format : MPEG Audio
Format version : Version 1
Format profile : Layer 3
Mode : Joint stereo
Mode extension : MS Stereo
Codec ID : 55
Codec ID/Hint : MP3
Duration : 1h 37mn
Bit rate mode : Constant
Bit rate : 128 Kbps
Channel(s) : 2 channels
Sampling rate : 48.0 KHz
Compression mode : Lossy
Stream size : 89.1 MiB (12%)
Alignment : Aligned on interleaves
Interleave, duration : 42 ms (1.00 video frame)
Interleave, preload duration : 504 ms
Writing library : LAME3.98r
Encoding settings : -m j -V 4 -q 2 -lowpass 17 -b 128
загрузка...
Правила, инструкции, FAQ!!!
Торрент  Добавлен [07 фев 2014, 11:42] Скачать торрент
Скачать торрент
[ Размер 15.04 КБ / Просмотров 3 ]

Статус  
 
Размер  744.75 МБ
Приватный: Нет (DHT включён)
.torrent скачан  0
Как залить торрент? | Как скачать Torrent? | Как смотреть и слушать онлайн?  


     Отправить личное сообщение
   
Страница 1 из 1
Показать сообщения за:  Поле сортировки  
Начать новую тему Ответить на тему

   Похожие торренты   Автор   Ответы   Просмотры   Последнее сообщение 
В этой теме нет новых непрочитанных сообщений. Скачать торрент Мальчикам это нравится / The House Bunny (Фред Вульф / Fred Wolf) [2008 г., Комедия, DVDRip]

в форуме Комедии, Размер: 700.81 МБ, Здоровье: 0%

Anonymous

0
0|0

59
0

16 апр 2014, 07:51

Anonymous Перейти к последнему сообщению

В этой теме нет новых непрочитанных сообщений. Скачать торрент Ночи в Роданте / Nights in Rodanthe (Джордж С. Вульф / George C. Wolfe) [2008 г., Драма, HDRip] Dub

в форуме Драмы, Мелодрамы, Размер: 743.82 МБ, Здоровье: 0%

Anonymous

0
0|0

34
0

13 фев 2014, 06:32

Anonymous Перейти к последнему сообщению

В этой теме нет новых непрочитанных сообщений. Скачать торрент Проверен Пересечение 10-й и Вульф / 10th & Wolf (2006) HDRip | P

в форуме Криминал, Размер: 1.45 ГБ, Здоровье: 100%

Anonymous

0
65|28

152
0

08 янв 2015, 16:54

Anonymous Перейти к последнему сообщению

В этой теме нет новых непрочитанных сообщений. Скачать торрент Эмпайр-Фоллс / Падение империи / Empire Falls (Фред Скеписи / Fred Schepisi) [2005, США, драма, мелодрама, DVDRip]

в форуме Драмы, Мелодрамы, Размер: 2.91 ГБ, Здоровье: 100%

Anonymous

0
99|1

220
3

24 апр 2014, 14:09

Anonymous Перейти к последнему сообщению

В этой теме нет новых непрочитанных сообщений. Скачать торрент Робокоп 3 / RoboCop 3 (Фред Деккер / Fred Dekker) [1993, фантастика, боевик, триллер, драма, криминал, BDRip-AVC] Dub + 2 MVO + DVO + AVO + Original + Subs

в форуме 720p | 1080p, Размер: 3.88 ГБ, Здоровье: 100%

Anonymous

0
8|2

110
1

01 фев 2014, 19:07

Anonymous Перейти к последнему сообщению



Сейчас этот форум просматривают: нет зарегистрированных пользователей и гости: 1


Вы не можете начинать темы
Вы не можете отвечать на сообщения
Вы не можете редактировать свои сообщения
Вы не можете удалять свои сообщения
Вы не можете добавлять вложения

Перейти:  

!ВНИМАНИЕ!
 Ресурс не предоставляет электронные версии произведений, а занимается лишь коллекционированием и каталогизацией ссылок, присылаемых и публикуемых на форуме нашими читателями. Если вы являетесь правообладателем какого-либо представленного материала и не желаете чтобы ссылка на него находилась в нашем каталоге, свяжитесь с нами и мы незамедлительно удалим её. Файлы для обмена на трекере предоставлены пользователями сайта, и администрация не несёт ответственности за их содержание. Просьба не заливать файлы, защищенные авторскими правами, а также файлы нелегального содержания!